Вы используете незарегистрированную версию компонента "Вкладки"!

Поиск

(Free Jazz) [CD] Don Cherry - Multikulti - 1990, FLAC (tracks+.cue), lossless

(Free Jazz) [CD] Don Cherry - Multikulti - 1990, FLAC (tracks+.cue), lossless
Треклист:
Don Cherry - Multikulti
Жанр: Free Jazz
Носитель: CD
Год издания: 1990
Издатель (лейбл): A&M Records
Номер по каталогу: 395 323-2
Аудиокодек: FLAC (*.flac)
Тип рипа: tracks+.cue
Битрейт аудио: lossless
Продолжительность: 51:54
Источник (релизер): ruskaval
Наличие сканов в содержимом раздачи: да
Треклист:
01. Trumpet (0:51)
02. Multikulti Soothsayer (5:30)
03. Flute (1:14)
04. Birdboy (4:46)
05. Melodica (1:28)
06. Dedication To Thomas Mapfumo (4:27)
07. Pettiford Bridge (4:48)
08. Piano/Trumpet (2:28)
09. Until The Rain Comes (12:21)
10. Divinity-Tree (5:18)
11. Rhumba Multikulti (4:15)
12. Multikulti Soothsayer Player (4:27)
 
 
Лог создания рипа
Exact Audio Copy V1.0 beta 3 from 29. August 2011
EAC extraction logfile from 25. April 2014, 23:52
Don Cherry / Multikulti
Used drive : ATAPI iHAS124 B Adapter: 2 ID: 1
Read mode : Secure
Utilize accurate stream : Yes
Defeat audio cache : Yes
Make use of C2 pointers : No
Read offset correction : 6
Overread into Lead-In and Lead-Out : No
Fill up missing offset samples with silence : Yes
Delete leading and trailing silent blocks : No
Null samples used in CRC calculations : Yes
Used interface : Native Win32 interface for Win NT & 2000
Gap handling : Appended to previous track
Used output format : User Defined Encoder
Selected bitrate : 1024 kBit/s
Quality : High
Add ID3 tag : No
Command line compressor : C:\Program Files (x86)\FLAC Frontend\tools\flac.exe
Additional command line options : -8 -V -T "ARTIST=%artist%" -T "TITLE=%title%" -T "ALBUM=%albumtitle%" -T "DATE=%year%" -T "TRACKNUMBER=%tracknr%" -T "TOTALTRACKS=%numtracks%" -T "GENRE=%genre%" -T "ALBUMARTIST=%albumartist%" -T "ALBUM ARTIST=%albumartist%" -T "COMMENT=EAC Secure Mode, Test & Copy, AccurateRip, FLAC -8" %source%
TOC of the extracted CD
Track | Start | Length | Start sector | End sector
---------------------------------------------------------
1 | 0:00.33 | 0:50.42 | 33 | 3824
2 | 0:51.00 | 5:30.28 | 3825 | 28602
3 | 6:21.28 | 1:14.30 | 28603 | 34182
4 | 7:35.58 | 4:45.50 | 34183 | 55607
5 | 12:21.33 | 1:28.30 | 55608 | 62237
6 | 13:49.63 | 4:27.17 | 62238 | 82279
7 | 18:17.05 | 4:47.60 | 82280 | 103864
8 | 23:04.65 | 2:27.60 | 103865 | 114949
9 | 25:32.50 | 12:21.20 | 114950 | 170544
10 | 37:53.70 | 5:18.25 | 170545 | 194419
11 | 43:12.20 | 4:14.65 | 194420 | 213534
12 | 47:27.10 | 4:27.28 | 213535 | 233587
Track 1
Filename C:\Don Cherry - Multikulti (1990) [FLAC] {A&M Records 395 323-2}\01 - Trumpet.wav
Pre-gap length 0:00:02.33
Peak level 54.0 %
Extraction speed 2.4 X
Track quality 100.0 %
Test CRC F402822C
Copy CRC F402822C
Accurately ripped (confidence 14) [C253920A] (AR v2)
Copy OK
Track 2
Filename C:\Don Cherry - Multikulti (1990) [FLAC] {A&M Records 395 323-2}\02 - Multikulti Soothsayer.wav
Pre-gap length 0:00:04.67
Peak level 55.5 %
Extraction speed 4.2 X
Track quality 100.0 %
Test CRC 23908DD2
Copy CRC 23908DD2
Accurately ripped (confidence 14) [F53AFC7D] (AR v2)
Copy OK
Track 3
Filename C:\Don Cherry - Multikulti (1990) [FLAC] {A&M Records 395 323-2}\03 - Flute.wav
Pre-gap length 0:00:03.60
Peak level 21.4 %
Extraction speed 3.3 X
Track quality 100.0 %
Test CRC A91539E3
Copy CRC A91539E3
Accurately ripped (confidence 14) [B12AB228] (AR v2)
Copy OK
Track 4
Filename C:\Don Cherry - Multikulti (1990) [FLAC] {A&M Records 395 323-2}\04 - Birdboy.wav
Pre-gap length 0:00:05.05
Peak level 73.2 %
Extraction speed 4.7 X
Track quality 100.0 %
Test CRC 8EA008BF
Copy CRC 8EA008BF
Accurately ripped (confidence 14) [63081F8E] (AR v2)
Copy OK
Track 5
Filename C:\Don Cherry - Multikulti (1990) [FLAC] {A&M Records 395 323-2}\05 - Melodica.wav
Pre-gap length 0:00:04.10
Peak level 54.5 %
Extraction speed 3.8 X
Track quality 100.0 %
Test CRC 88138F88
Copy CRC 88138F88
Accurately ripped (confidence 14) [4735CB39] (AR v2)
Copy OK
Track 6
Filename C:\Don Cherry - Multikulti (1990) [FLAC] {A&M Records 395 323-2}\06 - Dedication To Thomas Mapfumo.wav
Pre-gap length 0:00:01.51
Peak level 60.9 %
Extraction speed 4.2 X
Track quality 99.9 %
Test CRC C1398A2D
Copy CRC C1398A2D
Accurately ripped (confidence 14) [5D2B3925] (AR v2)
Copy OK
Track 7
Filename C:\Don Cherry - Multikulti (1990) [FLAC] {A&M Records 395 323-2}\07 - Pettiford Bridge.wav
Pre-gap length 0:00:02.60
Peak level 69.6 %
Extraction speed 4.5 X
Track quality 99.9 %
Test CRC 5C6C72C4
Copy CRC 5C6C72C4
Accurately ripped (confidence 14) [0580578C] (AR v2)
Copy OK
Track 8
Filename C:\Don Cherry - Multikulti (1990) [FLAC] {A&M Records 395 323-2}\08 - Piano-Trumpet.wav
Pre-gap length 0:00:02.52
Peak level 58.1 %
Extraction speed 5.1 X
Track quality 100.0 %
Test CRC 2E8BE4E9
Copy CRC 2E8BE4E9
Accurately ripped (confidence 14) [BE560333] (AR v2)
Copy OK
Track 9
Filename C:\Don Cherry - Multikulti (1990) [FLAC] {A&M Records 395 323-2}\09 - Until The Rain Comes.wav
Pre-gap length 0:00:02.17
Peak level 97.7 %
Extraction speed 6.6 X
Track quality 100.0 %
Test CRC A74C50B6
Copy CRC A74C50B6
Accurately ripped (confidence 14) [8788FA21] (AR v2)
Copy OK
Track 10
Filename C:\Don Cherry - Multikulti (1990) [FLAC] {A&M Records 395 323-2}\10 - Divinity-Tree.wav
Pre-gap length 0:00:03.12
Peak level 85.3 %
Extraction speed 6.6 X
Track quality 100.0 %
Test CRC F97E8384
Copy CRC F97E8384
Accurately ripped (confidence 14) [E70E75F4] (AR v2)
Copy OK
Track 11
Filename C:\Don Cherry - Multikulti (1990) [FLAC] {A&M Records 395 323-2}\11 - Rhumba Multikulti.wav
Pre-gap length 0:00:03.30
Peak level 92.7 %
Extraction speed 6.7 X
Track quality 100.0 %
Test CRC BD80B61A
Copy CRC BD80B61A
Accurately ripped (confidence 14) [97B7D655] (AR v2)
Copy OK
Track 12
Filename C:\Don Cherry - Multikulti (1990) [FLAC] {A&M Records 395 323-2}\12 - Multikulti Soothsayer Player.wav
Pre-gap length 0:00:04.22
Peak level 87.7 %
Extraction speed 7.0 X
Track quality 100.0 %
Test CRC 629B6B2F
Copy CRC 629B6B2F
Accurately ripped (confidence 14) [AE7ED5A2] (AR v2)
Copy OK
All tracks accurately ripped
No errors occurred
End of status report
==== Log checksum 0EB02768A7E69104018FB7CE377F6413663F62F8558632D062AC0BF2821A00C1 ====
 
Содержание индексной карты (.CUE)
REM GENRE Jazz
REM DATE 1990
REM DISCID AF0C2A0C
REM COMMENT "ExactAudioCopy v1.0b3"
PERFORMER "Don Cherry"
TITLE "Multikulti"
FILE "01 - Trumpet.wav" WAVE
TRACK 01 AUDIO
TITLE "Trumpet"
PERFORMER "Don Cherry"
PREGAP 00:00:33
INDEX 01 00:00:00
TRACK 02 AUDIO
TITLE "Multikulti Soothsayer"
PERFORMER "Don Cherry"
INDEX 00 00:45:50
FILE "02 - Multikulti Soothsayer.wav" WAVE
INDEX 01 00:00:00
TRACK 03 AUDIO
TITLE "Flute"
PERFORMER "Don Cherry"
INDEX 00 05:26:43
FILE "03 - Flute.wav" WAVE
INDEX 01 00:00:00
TRACK 04 AUDIO
TITLE "Birdboy"
PERFORMER "Don Cherry"
INDEX 00 01:09:25
FILE "04 - Birdboy.wav" WAVE
INDEX 01 00:00:00
TRACK 05 AUDIO
TITLE "Melodica"
PERFORMER "Don Cherry"
INDEX 00 04:41:40
FILE "05 - Melodica.wav" WAVE
INDEX 01 00:00:00
TRACK 06 AUDIO
TITLE "Dedication To Thomas Mapfumo"
PERFORMER "Don Cherry"
INDEX 00 01:26:54
FILE "06 - Dedication To Thomas Mapfumo.wav" WAVE
INDEX 01 00:00:00
TRACK 07 AUDIO
TITLE "Pettiford Bridge"
PERFORMER "Don Cherry"
INDEX 00 04:24:32
FILE "07 - Pettiford Bridge.wav" WAVE
INDEX 01 00:00:00
TRACK 08 AUDIO
TITLE "Piano/Trumpet"
PERFORMER "Don Cherry"
INDEX 00 04:45:08
FILE "08 - Piano-Trumpet.wav" WAVE
INDEX 01 00:00:00
TRACK 09 AUDIO
TITLE "Until The Rain Comes"
PERFORMER "Don Cherry"
INDEX 00 02:25:43
FILE "09 - Until The Rain Comes.wav" WAVE
INDEX 01 00:00:00
TRACK 10 AUDIO
TITLE "Divinity-Tree"
PERFORMER "Don Cherry"
INDEX 00 12:18:08
FILE "10 - Divinity-Tree.wav" WAVE
INDEX 01 00:00:00
TRACK 11 AUDIO
TITLE "Rhumba Multikulti"
PERFORMER "Don Cherry"
INDEX 00 05:14:70
FILE "11 - Rhumba Multikulti.wav" WAVE
INDEX 01 00:00:00
TRACK 12 AUDIO
TITLE "Multikulti Soothsayer Player"
PERFORMER "Don Cherry"
INDEX 00 04:10:43
FILE "12 - Multikulti Soothsayer Player.wav" WAVE
INDEX 01 00:00:00
По всем вопросам пишите личное сообщение пользователю M0p94ok.
01:42
191
Нет комментариев. Ваш будет первым!