Вы используете незарегистрированную версию компонента "Вкладки"!

Поиск

(Avant-Garde, Free Improvisation) [CD] Gianni Gebbia - Arcana Major / Sonic Tarots Session - 2002, FLAC (tracks+.cue), lossless

(Avant-Garde, Free Improvisation) [CD] Gianni Gebbia - Arcana Major / Sonic Tarots Session - 2002, FLAC (tracks+.cue), lossless
Треклист:
Gianni Gebbia – Arcana Major / Sonic Tarots Session
Жанр: Avant-Garde, Free Improvisation
Носитель: CD
Страна-производитель диска: Italy
Год издания: 2002
Издатель (лейбл): Stereo Supremo / Rastascan Records
Номер по каталогу: STSO008 / BRD047
Аудиокодек: FLAC (*.flac)
Тип рипа: tracks+.cue
Битрейт аудио: lossless
Продолжительность: 57:08
Источник (релизер): я
Наличие сканов в содержимом раздачи: да
Треклист:
01. Magician 3:53
02. High Priestess 4:53
03. Empress 3:07
04. Emperor 2:35
05. Pope 3:35
06. Lover 1:09
07. Chariot 1:35
08. Justice 0:28
09. Hermit 5:03
10. Wheel of Fortune 1:44
11. Force 1:30
12. Hanged Man 1:01
13. No Name (Death) 2:01
14. Temperance 1:57
15. Devil 1:10
16. Tower 5:44
17. Stars 0:43
18. Moon 1:13
19. Sun 2:37
20. Judgement 4:21
21. World 4:00
22. Fool 2:50
Recorded at Guerrilla Studios, Oakland, California (U.S.A.) in February 2001 except tracks 5, 6, 8, 11, 12, 16, 17, 21 recorded at Miao studios, Palermo (Italy) in November 2000.
Gianni Gebbia – Alto and Eb Sopranino Saxophone
 
Лог создания рипа
Exact Audio Copy V1.0 beta 3 from 29. August 2011
EAC extraction logfile from 9. April 2014, 16:14
Gianni Gebbia / Arcana Major / Sonic Tarots Session
Used drive : SlimtypeeNAU508 5 Adapter: 1 ID: 0
Read mode : Secure
Utilize accurate stream : Yes
Defeat audio cache : Yes
Make use of C2 pointers : No
Read offset correction : 6
Overread into Lead-In and Lead-Out : No
Fill up missing offset samples with silence : Yes
Delete leading and trailing silent blocks : No
Null samples used in CRC calculations : Yes
Used interface : Native Win32 interface for Win NT & 2000
Gap handling : Appended to previous track
Used output format : User Defined Encoder
Selected bitrate : 768 kBit/s
Quality : High
Add ID3 tag : No
Command line compressor : C:\Program Files (x86)\Exact Audio Copy\Flac\flac.exe
Additional command line options : -8 -V -T "ARTIST=%artist%" -T "TITLE=%title%" -T "ALBUM=%albumtitle%" -T "DATE=%year%" -T "TRACKNUMBER=%tracknr%" -T "TOTALTRACKS=%numtracks%" -T "GENRE=%genre%" -T "ALBUMARTIST=%albumartist%" -T "ALBUM ARTIST=%albumartist%" -T "COMMENT=EAC Secure Mode, Test & Copy, AccurateRip, FLAC -8" %source%
TOC of the extracted CD
Track | Start | Length | Start sector | End sector
---------------------------------------------------------
1 | 0:00.00 | 3:52.43 | 0 | 17442
2 | 3:52.43 | 4:53.00 | 17443 | 39417
3 | 8:45.43 | 3:06.54 | 39418 | 53421
4 | 11:52.22 | 2:34.43 | 53422 | 65014
5 | 14:26.65 | 3:35.33 | 65015 | 81172
6 | 18:02.23 | 1:08.65 | 81173 | 86337
7 | 19:11.13 | 1:34.43 | 86338 | 93430
8 | 20:45.56 | 0:27.54 | 93431 | 95509
9 | 21:13.35 | 5:03.22 | 95510 | 118256
10 | 26:16.57 | 1:44.17 | 118257 | 126073
11 | 28:00.74 | 1:29.57 | 126074 | 132805
12 | 29:30.56 | 1:00.38 | 132806 | 137343
13 | 30:31.19 | 2:01.03 | 137344 | 146421
14 | 32:32.22 | 1:56.50 | 146422 | 155171
15 | 34:28.72 | 1:10.19 | 155172 | 160440
16 | 35:39.16 | 5:43.59 | 160441 | 186224
17 | 41:23.00 | 0:43.11 | 186225 | 189460
18 | 42:06.11 | 1:13.33 | 189461 | 194968
19 | 43:19.44 | 2:37.11 | 194969 | 206754
20 | 45:56.55 | 4:20.43 | 206755 | 226297
21 | 50:17.23 | 4:00.22 | 226298 | 244319
22 | 54:17.45 | 2:50.11 | 244320 | 257080
Track 1
Filename C:\EAC rips\01 - Magician.wav
Pre-gap length 0:00:02.00
Peak level 96.5 %
Extraction speed 2.1 X
Track quality 100.0 %
Test CRC 1E19C88F
Copy CRC 1E19C88F
Cannot be verified as accurate (confidence 1) [BF6C7EA7], AccurateRip returned [0D874587] (AR v2)
Copy OK
Track 2
Filename C:\EAC rips\02 - High Priestess.wav
Pre-gap length 0:00:02.03
Peak level 96.3 %
Extraction speed 2.4 X
Track quality 100.0 %
Test CRC 656F00B3
Copy CRC 656F00B3
Cannot be verified as accurate (confidence 1) [C3AC9E24], AccurateRip returned [99CA12E3] (AR v2)
Copy OK
Track 3
Filename C:\EAC rips\03 - Empress.wav
Pre-gap length 0:00:03.04
Peak level 96.5 %
Extraction speed 2.4 X
Track quality 100.0 %
Test CRC 42E99423
Copy CRC 42E99423
Cannot be verified as accurate (confidence 1) [6D34E3A4], AccurateRip returned [BD022BB5] (AR v2)
Copy OK
Track 4
Filename C:\EAC rips\04 - Emperor.wav
Pre-gap length 0:00:02.03
Peak level 96.5 %
Extraction speed 2.5 X
Track quality 100.0 %
Test CRC 3F16E49E
Copy CRC 3F16E49E
Cannot be verified as accurate (confidence 1) [3D5468C7], AccurateRip returned [22B2491C] (AR v2)
Copy OK
Track 5
Filename C:\EAC rips\05 - Pope.wav
Pre-gap length 0:00:02.03
Peak level 96.5 %
Extraction speed 2.3 X
Track quality 99.9 %
Test CRC 8221D3ED
Copy CRC 8221D3ED
Cannot be verified as accurate (confidence 1) [D6156BEC], AccurateRip returned [A41C2EDF] (AR v2)
Copy OK
Track 6
Filename C:\EAC rips\06 - Lover.wav
Pre-gap length 0:00:02.03
Peak level 96.5 %
Extraction speed 2.2 X
Track quality 100.0 %
Test CRC 774915BF
Copy CRC 774915BF
Cannot be verified as accurate (confidence 1) [0C88EC51], AccurateRip returned [0534EC08] (AR v2)
Copy OK
Track 7
Filename C:\EAC rips\07 - Chariot.wav
Pre-gap length 0:00:01.02
Peak level 96.4 %
Extraction speed 1.7 X
Track quality 99.8 %
Test CRC 8CD11404
Copy CRC 8CD11404
Cannot be verified as accurate (confidence 1) [C159DA87], AccurateRip returned [F047C821] (AR v2)
Copy OK
Track 8
Filename C:\EAC rips\08 - Justice.wav
Pre-gap length 0:00:02.03
Peak level 96.5 %
Extraction speed 1.4 X
Track quality 100.0 %
Test CRC 2E5299D9
Copy CRC 2E5299D9
Cannot be verified as accurate (confidence 1) [F06FEFB4], AccurateRip returned [E1FBF442] (AR v2)
Copy OK
Track 9
Filename C:\EAC rips\09 - Hermit.wav
Pre-gap length 0:00:02.03
Peak level 96.5 %
Extraction speed 3.2 X
Track quality 100.0 %
Test CRC 999981B3
Copy CRC 999981B3
Cannot be verified as accurate (confidence 1) [6E05EDC0], AccurateRip returned [7E9F3732] (AR v2)
Copy OK
Track 10
Filename C:\EAC rips\10 - Wheel of Fortune.wav
Pre-gap length 0:00:02.03
Peak level 96.6 %
Extraction speed 1.9 X
Track quality 99.8 %
Test CRC FFA5BF21
Copy CRC FFA5BF21
Cannot be verified as accurate (confidence 1) [8F5C82A8], AccurateRip returned [6A67F9F6] (AR v2)
Copy OK
Track 11
Filename C:\EAC rips\11 - Force.wav
Pre-gap length 0:00:02.03
Peak level 96.5 %
Extraction speed 2.7 X
Track quality 100.0 %
Test CRC 3A2BBCD0
Copy CRC 3A2BBCD0
Cannot be verified as accurate (confidence 1) [5173FD1C], AccurateRip returned [1BDDF8D8] (AR v2)
Copy OK
Track 12
Filename C:\EAC rips\12 - Hanged Man.wav
Pre-gap length 0:00:02.03
Peak level 96.5 %
Extraction speed 2.4 X
Track quality 100.0 %
Test CRC 129B5A1B
Copy CRC 129B5A1B
Cannot be verified as accurate (confidence 1) [600C45E7], AccurateRip returned [C70E836B] (AR v2)
Copy OK
Track 13
Filename C:\EAC rips\13 - No Name (Death).wav
Pre-gap length 0:00:02.03
Peak level 96.5 %
Extraction speed 3.0 X
Track quality 100.0 %
Test CRC 3C50E1D4
Copy CRC 3C50E1D4
Cannot be verified as accurate (confidence 1) [38773170], AccurateRip returned [2645328D] (AR v2)
Copy OK
Track 14
Filename C:\EAC rips\14 - Temperance.wav
Pre-gap length 0:00:02.03
Peak level 96.5 %
Extraction speed 3.1 X
Track quality 100.0 %
Test CRC 5E4DD4D1
Copy CRC 5E4DD4D1
Cannot be verified as accurate (confidence 1) [E2BED111], AccurateRip returned [3A879AF1] (AR v2)
Copy OK
Track 15
Filename C:\EAC rips\15 - Devil.wav
Pre-gap length 0:00:02.03
Peak level 96.5 %
Extraction speed 2.7 X
Track quality 100.0 %
Test CRC 68CA9EA6
Copy CRC 68CA9EA6
Cannot be verified as accurate (confidence 1) [D943B56F], AccurateRip returned [23E87B53] (AR v2)
Copy OK
Track 16
Filename C:\EAC rips\16 - Tower.wav
Pre-gap length 0:00:02.03
Peak level 96.6 %
Extraction speed 3.9 X
Track quality 100.0 %
Test CRC 1A5604A5
Copy CRC 1A5604A5
Cannot be verified as accurate (confidence 1) [0154FC39], AccurateRip returned [EC23A740] (AR v2)
Copy OK
Track 17
Filename C:\EAC rips\17 - Stars.wav
Pre-gap length 0:00:01.02
Peak level 96.5 %
Extraction speed 1.3 X
Track quality 99.7 %
Test CRC 9009E5E5
Copy CRC 9009E5E5
Cannot be verified as accurate (confidence 1) [69DB0B4B], AccurateRip returned [632864F2] (AR v2)
Copy OK
Track 18
Filename C:\EAC rips\18 - Moon.wav
Pre-gap length 0:00:01.02
Peak level 96.5 %
Extraction speed 2.9 X
Track quality 100.0 %
Test CRC D1F80639
Copy CRC D1F80639
Cannot be verified as accurate (confidence 1) [5B8E71D9], AccurateRip returned [A6EC4E59] (AR v2)
Copy OK
Track 19
Filename C:\EAC rips\19 - Sun.wav
Pre-gap length 0:00:02.03
Peak level 96.5 %
Extraction speed 3.7 X
Track quality 100.0 %
Test CRC 2FCB947C
Copy CRC 2FCB947C
Cannot be verified as accurate (confidence 1) [C485761D], AccurateRip returned [886BA009] (AR v2)
Copy OK
Track 20
Filename C:\EAC rips\20 - Judgement.wav
Pre-gap length 0:00:02.03
Peak level 96.5 %
Extraction speed 3.4 X
Track quality 99.9 %
Test CRC 937D3FB9
Copy CRC 937D3FB9
Cannot be verified as accurate (confidence 1) [A1517353], AccurateRip returned [AF6B5DB6] (AR v2)
Copy OK
Track 21
Filename C:\EAC rips\21 - World.wav
Pre-gap length 0:00:03.04
Peak level 96.5 %
Extraction speed 4.2 X
Track quality 100.0 %
Test CRC 13D9C9F9
Copy CRC 13D9C9F9
Cannot be verified as accurate (confidence 1) [0520B26F], AccurateRip returned [651E3F0A] (AR v2)
Copy OK
Track 22
Filename C:\EAC rips\22 - Fool.wav
Pre-gap length 0:00:02.03
Peak level 71.7 %
Extraction speed 4.0 X
Track quality 100.0 %
Test CRC BDFAF553
Copy CRC BDFAF553
Cannot be verified as accurate (confidence 1) [49A9DD20], AccurateRip returned [752044A2] (AR v2)
Copy OK
No tracks could be verified as accurate
You may have a different pressing from the one(s) in the database
No errors occurred
End of status report
---- CUETools DB Plugin V2.1.4
[CTDB TOCID: 5EmClEglb1hSGjQbB266wydN7yI-] disk not present in database
Submit result: 5EmClEglb1hSGjQbB266wydN7yI- has been uploaded
==== Log checksum 2AD3BB5857D5CDAB7A422B7B9A3C9D6E91E1EEDBD0F6F1C2B208D5523AA1DD7A ====
 
Содержание индексной карты (.CUE)
REM GENRE Jazz
REM DATE 2001
REM DISCID 3D0D6316
REM COMMENT "ExactAudioCopy v1.0b3"
PERFORMER "Gianni Gebbia"
TITLE "Arcana Major / Sonic Tarots Session"
FILE "01 - Magician.wav" WAVE
TRACK 01 AUDIO
TITLE "Magician"
PERFORMER "Gianni Gebbia"
INDEX 01 00:00:00
TRACK 02 AUDIO
TITLE "High Priestess"
PERFORMER "Gianni Gebbia"
INDEX 00 03:50:40
FILE "02 - High Priestess.wav" WAVE
INDEX 01 00:00:00
TRACK 03 AUDIO
TITLE "Empress"
PERFORMER "Gianni Gebbia"
INDEX 00 04:49:71
FILE "03 - Empress.wav" WAVE
INDEX 01 00:00:00
TRACK 04 AUDIO
TITLE "Emperor"
PERFORMER "Gianni Gebbia"
INDEX 00 03:04:51
FILE "04 - Emperor.wav" WAVE
INDEX 01 00:00:00
TRACK 05 AUDIO
TITLE "Pope"
PERFORMER "Gianni Gebbia"
INDEX 00 02:32:40
FILE "05 - Pope.wav" WAVE
INDEX 01 00:00:00
TRACK 06 AUDIO
TITLE "Lover"
PERFORMER "Gianni Gebbia"
INDEX 00 03:33:30
FILE "06 - Lover.wav" WAVE
INDEX 01 00:00:00
TRACK 07 AUDIO
TITLE "Chariot"
PERFORMER "Gianni Gebbia"
INDEX 00 01:07:63
FILE "07 - Chariot.wav" WAVE
INDEX 01 00:00:00
TRACK 08 AUDIO
TITLE "Justice"
PERFORMER "Gianni Gebbia"
INDEX 00 01:32:40
FILE "08 - Justice.wav" WAVE
INDEX 01 00:00:00
TRACK 09 AUDIO
TITLE "Hermit"
PERFORMER "Gianni Gebbia"
INDEX 00 00:25:51
FILE "09 - Hermit.wav" WAVE
INDEX 01 00:00:00
TRACK 10 AUDIO
TITLE "Wheel of Fortune"
PERFORMER "Gianni Gebbia"
INDEX 00 05:01:19
FILE "10 - Wheel of Fortune.wav" WAVE
INDEX 01 00:00:00
TRACK 11 AUDIO
TITLE "Force"
PERFORMER "Gianni Gebbia"
INDEX 00 01:42:14
FILE "11 - Force.wav" WAVE
INDEX 01 00:00:00
TRACK 12 AUDIO
TITLE "Hanged Man"
PERFORMER "Gianni Gebbia"
INDEX 00 01:27:54
FILE "12 - Hanged Man.wav" WAVE
INDEX 01 00:00:00
TRACK 13 AUDIO
TITLE "No Name (Death)"
PERFORMER "Gianni Gebbia"
INDEX 00 00:58:35
FILE "13 - No Name (Death).wav" WAVE
INDEX 01 00:00:00
TRACK 14 AUDIO
TITLE "Temperance"
PERFORMER "Gianni Gebbia"
INDEX 00 01:59:00
FILE "14 - Temperance.wav" WAVE
INDEX 01 00:00:00
TRACK 15 AUDIO
TITLE "Devil"
PERFORMER "Gianni Gebbia"
INDEX 00 01:54:47
FILE "15 - Devil.wav" WAVE
INDEX 01 00:00:00
TRACK 16 AUDIO
TITLE "Tower"
PERFORMER "Gianni Gebbia"
INDEX 00 01:08:16
FILE "16 - Tower.wav" WAVE
INDEX 01 00:00:00
TRACK 17 AUDIO
TITLE "Stars"
PERFORMER "Gianni Gebbia"
INDEX 00 05:42:57
FILE "17 - Stars.wav" WAVE
INDEX 01 00:00:00
TRACK 18 AUDIO
TITLE "Moon"
PERFORMER "Gianni Gebbia"
INDEX 00 00:42:09
FILE "18 - Moon.wav" WAVE
INDEX 01 00:00:00
TRACK 19 AUDIO
TITLE "Sun"
PERFORMER "Gianni Gebbia"
INDEX 00 01:11:30
FILE "19 - Sun.wav" WAVE
INDEX 01 00:00:00
TRACK 20 AUDIO
TITLE "Judgement"
PERFORMER "Gianni Gebbia"
INDEX 00 02:35:08
FILE "20 - Judgement.wav" WAVE
INDEX 01 00:00:00
TRACK 21 AUDIO
TITLE "World"
PERFORMER "Gianni Gebbia"
INDEX 00 04:17:39
FILE "21 - World.wav" WAVE
INDEX 01 00:00:00
TRACK 22 AUDIO
TITLE "Fool"
PERFORMER "Gianni Gebbia"
INDEX 00 03:58:19
FILE "22 - Fool.wav" WAVE
INDEX 01 00:00:00
 
CUETools
[CUETools log; Date: 09.04.2014 16:17:35; Version: 2.1.4]
[CTDB TOCID: 5EmClEglb1hSGjQbB266wydN7yI-] found.
Track | CTDB Status
1 | (1/1) Accurately ripped
2 | (1/1) Accurately ripped
3 | (1/1) Accurately ripped
4 | (1/1) Accurately ripped
5 | (1/1) Accurately ripped
6 | (1/1) Accurately ripped
7 | (1/1) Accurately ripped
8 | (1/1) Accurately ripped
9 | (1/1) Accurately ripped
10 | (1/1) Accurately ripped
11 | (1/1) Accurately ripped
12 | (1/1) Accurately ripped
13 | (1/1) Accurately ripped
14 | (1/1) Accurately ripped
15 | (1/1) Accurately ripped
16 | (1/1) Accurately ripped
17 | (1/1) Accurately ripped
18 | (1/1) Accurately ripped
19 | (1/1) Accurately ripped
20 | (1/1) Accurately ripped
21 | (1/1) Accurately ripped
22 | (1/1) Accurately ripped
[AccurateRip ID: 002dfaff-02c92f0d-3d0d6316] found.
Track [ CRC | V2 ] Status
01 [cf1454f6|bf6c7ea7] (0+0/1) No match
02 [994b32ef|c3ac9e24] (0+0/1) No match
03 [ef4e30b3|6d34e3a4] (0+0/1) No match
04 [f4fbe55a|3d5468c7] (0+0/1) No match
05 [4a62418d|d6156bec] (0+0/1) No match
06 [4cc0c390|0c88ec51] (0+0/1) No match
07 [db2c93f1|c159da87] (0+0/1) No match
08 [286c3cc6|f06fefb4] (0+0/1) No match
09 [aac8ac38|6e05edc0] (0+0/1) No match
10 [eb5677be|8f5c82a8] (0+0/1) No match
11 [84a5f5c0|5173fd1c] (0+0/1) No match
12 [3f7ef887|600c45e7] (0+0/1) No match
13 [a4263ee7|38773170] (0+0/1) No match
14 [0ac3d8ab|e2bed111] (0+0/1) No match
15 [cf957949|d943b56f] (0+0/1) No match
16 [bb955ec0|0154fc39] (0+0/1) No match
17 [804049f8|69db0b4b] (0+0/1) No match
18 [fd5b857b|5b8e71d9] (0+0/1) No match
19 [2bea3f9b|c485761d] (0+0/1) No match
20 [632a24da|a1517353] (0+0/1) No match
21 [ab8647a2|0520b26f] (0+0/1) No match
22 [d42d75ba|49a9dd20] (0+0/1) No match
Offsetted by -66:
01 [0d874587] (1/1) Accurately ripped
02 [99ca12e3] (1/1) Accurately ripped
03 [bd022bb5] (1/1) Accurately ripped
04 [22b2491c] (1/1) Accurately ripped
05 [a41c2edf] (1/1) Accurately ripped
06 [0534ec08] (1/1) Accurately ripped
07 [f047c821] (1/1) Accurately ripped
08 [e1fbf442] (1/1) Accurately ripped
09 [7e9f3732] (1/1) Accurately ripped
10 [6a67f9f6] (1/1) Accurately ripped
11 [1bddf8d8] (1/1) Accurately ripped
12 [c70e836b] (1/1) Accurately ripped
13 [2645328d] (1/1) Accurately ripped
14 [3a879af1] (1/1) Accurately ripped
15 [23e87b53] (1/1) Accurately ripped
16 [ec23a740] (1/1) Accurately ripped
17 [632864f2] (1/1) Accurately ripped
18 [a6ec4e59] (1/1) Accurately ripped
19 [886ba009] (1/1) Accurately ripped
20 [af6b5db6] (1/1) Accurately ripped
21 [651e3f0a] (1/1) Accurately ripped
22 [752044a2] (1/1) Accurately ripped
Track Peak [ CRC32 ] [W/O NULL] [ LOG ]
-- 96.6 [9720FF4F] [6570E94B]
01 96.5 [1E19C88F] [2367F068] CRC32
02 96.3 [656F00B3] [07E5FCD8] CRC32
03 96.5 [42E99423] [5AD2A670] CRC32
04 96.5 [3F16E49E] [C460C39F] CRC32
05 96.5 [8221D3ED] [FAEE0B0D] CRC32
06 96.5 [774915BF] [B64C6932] CRC32
07 96.4 [8CD11404] [B043A46E] CRC32
08 96.5 [2E5299D9] [88B647FE] CRC32
09 96.5 [999981B3] [5435B827] CRC32
10 96.6 [FFA5BF21] [E088B683] CRC32
11 96.5 [3A2BBCD0] [2EE596BD] CRC32
12 96.5 [129B5A1B] [09E3D728] CRC32
13 96.5 [3C50E1D4] [D6727CA7] CRC32
14 96.5 [5E4DD4D1] [C732FE22] CRC32
15 96.5 [68CA9EA6] [335E129D] CRC32
16 96.5 [1A5604A5] [DF4325D9] CRC32
17 96.5 [9009E5E5] [CD88DB38] CRC32
18 96.5 [D1F80639] [B753F01F] CRC32
19 96.5 [2FCB947C] [3ACF302B] CRC32
20 96.5 [937D3FB9] [84CE4936] CRC32
21 96.5 [13D9C9F9] [0982A46F] CRC32
22 71.7 [BDFAF553] [77168570] CRC32
 
How to use this CD
Each improvisation on this CD represents a different tarot card from the XXII arcana maior. To have a single-card prediction just 1) make a question 2) put the random or shuffle function on your CD player 3) the resulting piece will represent your answer.
По всем вопросам пишите личное сообщение пользователю M0p94ok.
01:41
181
Нет комментариев. Ваш будет первым!