Вы используете незарегистрированную версию компонента "Вкладки"!

Поиск

(Free Jazz, Contemporary Jazz) Anglo Italian Quartet (Elton Dean, Harry Beckett, Enrico Fazio, Fiorenzo Sordini) - Put It Right Mr. Smoothie - 1991, FLAC (image+.cue), lossless

(Free Jazz, Contemporary Jazz) Anglo Italian Quartet (Elton Dean, Harry Beckett, Enrico Fazio, Fiorenzo Sordini) - Put It Right Mr. Smoothie - 1991, FLAC (image+.cue), lossless
Треклист:
Anglo Italian Quartet / Put It Right Mr. Smoothie
Жанр: Free Jazz, Contemporary Jazz
Страна-производитель диска: Italy
Год издания: 1991
Издатель (лейбл): Splasc(h) Records
Номер по каталогу: CD H 313.2
Аудиокодек: FLAC (*.flac)
Тип рипа: image+.cue
Битрейт аудио: lossless
Продолжительность: 75:36
Источник (релизер): cd
Наличие сканов в содержимом раздачи: нет
Треклист:
1. Unda (8:49)
2. Put It Right Mr. Smoothie (8:03)
3. Sing Sing (4:15)
4. Small Strides (7:47)
5. One Three Nine (8:34)
6. I Wish (9:20)
7. Small Strides (10:26)
8. I Wish (live) (18:19)
 
Лог создания рипа
Exact Audio Copy V1.0 beta 2 from 29. April 2011
EAC extraction logfile from 18. October 2013, 13:56
Anglo Italian Quartet / Put It Right Mr. Smoothie
Used drive : Optiarc DVD RW AD-7170A Adapter: 0 ID: 0
Read mode : Secure
Utilize accurate stream : Yes
Defeat audio cache : Yes
Make use of C2 pointers : No
Read offset correction : 48
Overread into Lead-In and Lead-Out : No
Fill up missing offset samples with silence : Yes
Delete leading and trailing silent blocks : No
Null samples used in CRC calculations : Yes
Used interface : Native Win32 interface for Win NT & 2000
Used output format : User Defined Encoder
Selected bitrate : 320 kBit/s
Quality : High
Add ID3 tag : No
Command line compressor : C:\Program Files\Exact Audio Copy\Flac\flac.exe
Additional command line options : -V -8 -T "Date=%year%" -T "Genre=%genre%" %source%
TOC of the extracted CD
Track | Start | Length | Start sector | End sector
---------------------------------------------------------
1 | 0:00.33 | 8:49.25 | 33 | 39732
2 | 8:49.58 | 8:03.00 | 39733 | 75957
3 | 16:52.58 | 4:15.50 | 75958 | 95132
4 | 21:08.33 | 7:47.37 | 95133 | 130194
5 | 28:55.70 | 8:34.63 | 130195 | 168807
6 | 37:30.58 | 9:20.50 | 168808 | 210857
7 | 46:51.33 | 10:26.42 | 210858 | 257849
8 | 57:18.00 | 18:19.33 | 257850 | 340307
Range status and errors
Selected range
Filename K:\ЕАС\Anglo Italian Quartet - Put It Right Mr. Smoothie.wav
Peak level 99.6 %
Extraction speed 2.3 X
Range quality 99.9 %
Test CRC E04D8798
Copy CRC E04D8798
Copy OK
No errors occurred
AccurateRip summary
Track 1 not present in database
Track 2 not present in database
Track 3 not present in database
Track 4 not present in database
Track 5 not present in database
Track 6 not present in database
Track 7 not present in database
Track 8 not present in database
None of the tracks are present in the AccurateRip database
End of status report
==== Log checksum FF3CC126DE765931FC71666B25FA706AA547729E8241160CCE3FE2D7D2F3237E ====
 
Содержание индексной карты (.CUE)
REM GENRE Jazz
REM DATE 1991
REM DISCID 5111B908
REM COMMENT "ExactAudioCopy v1.0b2"
PERFORMER "Anglo Italian Quartet"
TITLE "Put It Right Mr. Smoothie"
FILE "Anglo Italian Quartet - Put It Right Mr. Smoothie.flac" WAVE
TRACK 01 AUDIO
TITLE "Unda"
PERFORMER "Anglo Italian Quartet"
FLAGS PRE
INDEX 00 00:00:00
INDEX 01 00:00:33
TRACK 02 AUDIO
TITLE "Put It Right Mr. Smoothie"
PERFORMER "Anglo Italian Quartet"
FLAGS PRE
INDEX 01 08:49:58
TRACK 03 AUDIO
TITLE "Sing Sing"
PERFORMER "Anglo Italian Quartet"
FLAGS PRE
INDEX 01 16:52:58
TRACK 04 AUDIO
TITLE "Small Strides"
PERFORMER "Anglo Italian Quartet"
FLAGS PRE
INDEX 01 21:08:33
TRACK 05 AUDIO
TITLE "One Three Nine"
PERFORMER "Anglo Italian Quartet"
FLAGS PRE
INDEX 01 28:55:70
TRACK 06 AUDIO
TITLE "I Wish"
PERFORMER "Anglo Italian Quartet"
FLAGS PRE
INDEX 01 37:30:58
TRACK 07 AUDIO
TITLE "Small Strides (live)"
PERFORMER "Anglo Italian Quartet"
INDEX 00 46:49:33
INDEX 01 46:51:33
TRACK 08 AUDIO
TITLE "I Wish (live)"
PERFORMER "Anglo Italian Quartet"
INDEX 01 57:18:00
Доп. информация: Rec: 10 & 12-13 Feb 1990 - Loc: Barigozzi Studio, Milan (Italy) / Modena (live) (Italy)
 
Об альбоме (сборнике)
Here the Italian stallion rhythm section (bassist Enrico Fazio and drummer Fiorenzo Sordini) reaches out to embrace Canterbury scenester saxophonist Elton Dean and Brit jazz trumpeter extraordinaire Harry Beckett and the result is a muscular yet lyrical session of high flying tempos, hard swinging blues, and fiery, knotty interactions between frontline and rhythm section. It's the Brits who had to give the most in this session, Dean's elaborately styled playing and phrasing which have served him well with Soft Machine and other jazz and prog rock outfits, has had to be pared back somewhat on this date. This, in spite of the fact that he wrote most of the compositions here, has made him a far more expansive improviser. Beckett, who has played with everyone from Bortherhood of Breath to John Surman to Dean, has taken his direct jazz approach and rounded its edges here, and blends very well with Dean. But it's the rhythm section that's the real story here; they bring the package of disparate elements together in a wash of grand vibes and sultry jazz pyrotechnics. On the title track, Fazio wails a pizzicato blues line under Beckett's angled lines making them smooth for a Dean solo that follows Sordini's accents. On Dean's "Small Strides," a complex melodic pattern has Sordini double-timing Dean and Beckett through an inverted harmonic sequence that opens up onto a theme and three variations as Fazio strides the backbeat. Finally, on Beckett's "I Wish," Fazio plays one of the most elaborately lyrical and poignant bass solos in Italian jazz history, only to have his arco work under-girded by a pastoral sequence by Sordini before the front line comes back in to whisper the track to a close elegaically. This was a phenomenal meeting, and this record has enduring grace and power.
 
Состав
Harry Beckett - tromba , flicorno
Elton Dean - saxello , sax contralto
Enrico Fazio - contrabbasso
Fiorenzo Sordini - batteria
Any questions -> support@pro-jazz.com. По всем вопросам пишите -> support@pro-jazz.com
19:30
172
Нет комментариев. Ваш будет первым!