Вы используете незарегистрированную версию компонента "Вкладки"!

Поиск

(Avant-Garde, Modern Jazz, Auand) Francesco Bearzatti Bizart Trio (Emmanuel Bex, Aldo Romano) - Virus - 2003, FLAC (tracks+.cue), lossless

(Avant-Garde, Modern Jazz, Auand) Francesco Bearzatti Bizart Trio (Emmanuel Bex, Aldo Romano) - Virus - 2003, FLAC (tracks+.cue), lossless
Треклист:
Francesco Bearzatti Bizart Trio / Virus
Жанр: Avant-Garde, Modern Jazz, Auand
Страна-производитель диска: Italy
Год издания: 2003
Издатель (лейбл): Auand
Номер по каталогу: AU9002
Аудиокодек: FLAC (*.flac)
Тип рипа: tracks+.cue
Битрейт аудио: lossless
Продолжительность: 51:46
Источник (релизер): я
Наличие сканов в содержимом раздачи: нет
Треклист:
01. Zouzou (Emmanuel Bex) 5:21
02. Hey! 3:51
03. Going to the … 2:50
04. Casbah 4:47
05. Bear’s Mood 6:49
06. Friulì Friulà 3:59
07. H.C. 6:17
08. Cattivik 3:33
09. Buk’s Blues 7:18
10. Virus 4:03
11. Inner Smile (Aldo Romano) 2:59
All compositions by Francesco Bearzatti except where indicated.
Recorded at Artesuono Recording Studio, Cavalicco (Udine, Italy) on December 16-18, 2002.
Francesco Bearzatti – Tenor and Soprano Sax, Clarinet
Emmanuel Bex – Organ, Vocoder & Electronics
Aldo Romano – Drums
Guests :
U. T. Gandhi – Percussion on #4, 6
Stefano Senni – Double Bass on #6
Enrico Terragnoli – Guitar on #4, 10
Mauro Ottolini – Trombone on #4, 7, 8
 
Лог создания рипа
Exact Audio Copy V1.0 beta 3 from 29. August 2011
EAC extraction logfile from 24. October 2013, 19:50
Francesco Bearzatti Bizart Trio / Virus
Used drive : SlimtypeeNAU508 5 Adapter: 1 ID: 0
Read mode : Secure
Utilize accurate stream : Yes
Defeat audio cache : Yes
Make use of C2 pointers : No
Read offset correction : 6
Overread into Lead-In and Lead-Out : No
Fill up missing offset samples with silence : Yes
Delete leading and trailing silent blocks : No
Null samples used in CRC calculations : Yes
Used interface : Native Win32 interface for Win NT & 2000
Gap handling : Appended to previous track
Used output format : User Defined Encoder
Selected bitrate : 768 kBit/s
Quality : High
Add ID3 tag : No
Command line compressor : C:\Program Files (x86)\Exact Audio Copy\Flac\flac.exe
Additional command line options : -8 -V -T "ARTIST=%artist%" -T "TITLE=%title%" -T "ALBUM=%albumtitle%" -T "DATE=%year%" -T "TRACKNUMBER=%tracknr%" -T "GENRE=%genre%" -T "PERFORMER=%albuminterpret%" -T "COMPOSER=%composer%" %haslyrics%--tag-from-file=LYRICS="%lyricsfile%"%haslyrics% -T "ALBUMARTIST=%albumartist%" -T "DISCNUMBER=%cdnumber%" -T "TOTALDISCS=%totalcds%" -T "TOTALTRACKS=%numtracks%" -T "COMMENT=%comment%" %source% -o %dest%
TOC of the extracted CD
Track | Start | Length | Start sector | End sector
---------------------------------------------------------
1 | 0:00.00 | 5:20.56 | 0 | 24055
2 | 5:20.56 | 3:50.46 | 24056 | 41351
3 | 9:11.27 | 2:49.42 | 41352 | 54068
4 | 12:00.69 | 4:47.08 | 54069 | 75601
5 | 16:48.02 | 6:48.42 | 75602 | 106243
6 | 23:36.44 | 3:58.41 | 106244 | 124134
7 | 27:35.10 | 6:17.30 | 124135 | 152439
8 | 33:52.40 | 3:33.08 | 152440 | 168422
9 | 37:25.48 | 7:18.27 | 168423 | 201299
10 | 44:44.00 | 4:02.69 | 201300 | 219518
11 | 48:46.69 | 2:58.68 | 219519 | 232936
12 | 54:17.62 | 3:07.28 | 244337 | 258389
Track 1
Filename C:\EAC rips\01 - Zouzou.wav
Pre-gap length 0:00:02.00
Peak level 99.8 %
Extraction speed 1.1 X
Track quality 100.0 %
Test CRC 9CA052DA
Copy CRC 9CA052DA
Accurately ripped (confidence 2) [EAA0030D] (AR v2)
Copy OK
Track 2
Filename C:\EAC rips\02 - Hey!.wav
Pre-gap length 0:00:02.00
Peak level 99.8 %
Extraction speed 1.2 X
Track quality 100.0 %
Test CRC 001079FF
Copy CRC 001079FF
Accurately ripped (confidence 2) [8F44E9D0] (AR v2)
Copy OK
Track 3
Filename C:\EAC rips\03 - Going to the ....wav
Pre-gap length 0:00:02.00
Peak level 100.0 %
Extraction speed 1.2 X
Track quality 100.0 %
Test CRC B215E55E
Copy CRC B215E55E
Accurately ripped (confidence 2) [08379C08] (AR v2)
Copy OK
Track 4
Filename C:\EAC rips\04 - Casbah.wav
Peak level 99.8 %
Extraction speed 1.4 X
Track quality 100.0 %
Test CRC BE3CCBAD
Copy CRC BE3CCBAD
Accurately ripped (confidence 2) [20DCE06B] (AR v2)
Copy OK
Track 5
Filename C:\EAC rips\05 - Bear's Mood.wav
Pre-gap length 0:00:02.00
Peak level 99.8 %
Extraction speed 1.6 X
Track quality 100.0 %
Test CRC 4CD5D209
Copy CRC 4CD5D209
Accurately ripped (confidence 2) [A8E48463] (AR v2)
Copy OK
Track 6
Filename C:\EAC rips\06 - Friulì Friulà.wav
Pre-gap length 0:00:02.00
Peak level 99.8 %
Extraction speed 1.6 X
Track quality 100.0 %
Test CRC F9735CC4
Copy CRC F9735CC4
Accurately ripped (confidence 2) [52FB7052] (AR v2)
Copy OK
Track 7
Filename C:\EAC rips\07 - H.C..wav
Pre-gap length 0:00:02.00
Peak level 100.0 %
Extraction speed 1.8 X
Track quality 100.0 %
Test CRC E0FAFC17
Copy CRC E0FAFC17
Accurately ripped (confidence 2) [DBF5363C] (AR v2)
Copy OK
Track 8
Filename C:\EAC rips\08 - Cattivik.wav
Pre-gap length 0:00:02.00
Peak level 99.8 %
Extraction speed 1.5 X
Track quality 99.9 %
Test CRC 830F637D
Copy CRC 830F637D
Accurately ripped (confidence 2) [E1251162] (AR v2)
Copy OK
Track 9
Filename C:\EAC rips\09 - Buk's Blues.wav
Pre-gap length 0:00:02.00
Peak level 99.8 %
Extraction speed 2.0 X
Track quality 100.0 %
Test CRC 02334718
Copy CRC 02334718
Accurately ripped (confidence 2) [DFF0F6D5] (AR v2)
Copy OK
Track 10
Filename C:\EAC rips\10 - Virus.wav
Pre-gap length 0:00:02.00
Peak level 99.8 %
Extraction speed 2.0 X
Track quality 100.0 %
Test CRC 170123F5
Copy CRC 170123F5
Accurately ripped (confidence 2) [1CFB1085] (AR v1)
Copy OK
Track 11
Filename C:\EAC rips\11 - Inner Smile.wav
Pre-gap length 0:00:02.00
Peak level 96.2 %
Extraction speed 1.9 X
Track quality 100.0 %
Test CRC AC5000DD
Copy CRC AC5000DD
Accurately ripped (confidence 2) [FDF84AF3] (AR v2)
Copy OK
All tracks accurately ripped
No errors occurred
End of status report
---- CUETools DB Plugin V2.1.4
[CTDB TOCID: GYhO7Ar0E1RBeZBZtoyMpWbNcGU-] disk not present in database
Submit result: GYhO7Ar0E1RBeZBZtoyMpWbNcGU- has been uploaded
==== Log checksum E61DDED890EBE132D02FF77F51EAB223FC0F36DE16256F6A7F1A7D20E1DD754D ====
 
Содержание индексной карты (.CUE)
REM GENRE Jazz
REM DATE 2003
REM DISCID 9A0D750C
REM COMMENT "ExactAudioCopy v1.0b3"
PERFORMER "Francesco Bearzatti Bizart Trio"
TITLE "Virus"
FILE "01 - Zouzou.wav" WAVE
TRACK 01 AUDIO
TITLE "Zouzou"
PERFORMER "Francesco Bearzatti Bizart Trio"
INDEX 01 00:00:00
TRACK 02 AUDIO
TITLE "Hey!"
PERFORMER "Francesco Bearzatti Bizart Trio"
INDEX 00 05:18:56
FILE "02 - Hey!.wav" WAVE
INDEX 01 00:00:00
TRACK 03 AUDIO
TITLE "Going to the ..."
PERFORMER "Francesco Bearzatti Bizart Trio"
INDEX 00 03:48:46
FILE "03 - Going to the ....wav" WAVE
INDEX 01 00:00:00
FILE "04 - Casbah.wav" WAVE
TRACK 04 AUDIO
TITLE "Casbah"
PERFORMER "Francesco Bearzatti Bizart Trio"
INDEX 01 00:00:00
TRACK 05 AUDIO
TITLE "Bear's Mood"
PERFORMER "Francesco Bearzatti Bizart Trio"
INDEX 00 04:45:08
FILE "05 - Bear's Mood.wav" WAVE
INDEX 01 00:00:00
TRACK 06 AUDIO
TITLE "Friulì Friulà"
PERFORMER "Francesco Bearzatti Bizart Trio"
INDEX 00 06:46:42
FILE "06 - Friulì Friulà.wav" WAVE
INDEX 01 00:00:00
TRACK 07 AUDIO
TITLE "H.C."
PERFORMER "Francesco Bearzatti Bizart Trio"
INDEX 00 03:56:41
FILE "07 - H.C..wav" WAVE
INDEX 01 00:00:00
TRACK 08 AUDIO
TITLE "Cattivik"
PERFORMER "Francesco Bearzatti Bizart Trio"
INDEX 00 06:15:30
FILE "08 - Cattivik.wav" WAVE
INDEX 01 00:00:00
TRACK 09 AUDIO
TITLE "Buk's Blues"
PERFORMER "Francesco Bearzatti Bizart Trio"
INDEX 00 03:31:08
FILE "09 - Buk's Blues.wav" WAVE
INDEX 01 00:00:00
TRACK 10 AUDIO
TITLE "Virus"
PERFORMER "Francesco Bearzatti Bizart Trio"
INDEX 00 07:16:27
FILE "10 - Virus.wav" WAVE
INDEX 01 00:00:00
TRACK 11 AUDIO
TITLE "Inner Smile"
PERFORMER "Francesco Bearzatti Bizart Trio"
INDEX 00 04:00:69
FILE "11 - Inner Smile.wav" WAVE
INDEX 01 00:00:00
TRACK 12 MODEx/2xxx
TITLE "CD-ROM Track"
PERFORMER "Francesco Bearzatti Bizart Trio"
INDEX 00 02:58:68
 
edited .cue sheet
REM GENRE Jazz
REM DATE 2003
REM DISCID 9A0D750C
REM COMMENT "ExactAudioCopy v1.0b3"
PERFORMER "Francesco Bearzatti Bizart Trio"
TITLE "Virus"
FILE "01 - Zouzou.wav" WAVE
TRACK 01 AUDIO
TITLE "Zouzou"
PERFORMER "Francesco Bearzatti Bizart Trio"
INDEX 01 00:00:00
TRACK 02 AUDIO
TITLE "Hey!"
PERFORMER "Francesco Bearzatti Bizart Trio"
INDEX 00 05:18:56
FILE "02 - Hey!.wav" WAVE
INDEX 01 00:00:00
TRACK 03 AUDIO
TITLE "Going to the ..."
PERFORMER "Francesco Bearzatti Bizart Trio"
INDEX 00 03:48:46
FILE "03 - Going to the ....wav" WAVE
INDEX 01 00:00:00
FILE "04 - Casbah.wav" WAVE
TRACK 04 AUDIO
TITLE "Casbah"
PERFORMER "Francesco Bearzatti Bizart Trio"
INDEX 01 00:00:00
TRACK 05 AUDIO
TITLE "Bear's Mood"
PERFORMER "Francesco Bearzatti Bizart Trio"
INDEX 00 04:45:08
FILE "05 - Bear's Mood.wav" WAVE
INDEX 01 00:00:00
TRACK 06 AUDIO
TITLE "Friulì Friulà"
PERFORMER "Francesco Bearzatti Bizart Trio"
INDEX 00 06:46:42
FILE "06 - Friulì Friulà.wav" WAVE
INDEX 01 00:00:00
TRACK 07 AUDIO
TITLE "H.C."
PERFORMER "Francesco Bearzatti Bizart Trio"
INDEX 00 03:56:41
FILE "07 - H.C..wav" WAVE
INDEX 01 00:00:00
TRACK 08 AUDIO
TITLE "Cattivik"
PERFORMER "Francesco Bearzatti Bizart Trio"
INDEX 00 06:15:30
FILE "08 - Cattivik.wav" WAVE
INDEX 01 00:00:00
TRACK 09 AUDIO
TITLE "Buk's Blues"
PERFORMER "Francesco Bearzatti Bizart Trio"
INDEX 00 03:31:08
FILE "09 - Buk's Blues.wav" WAVE
INDEX 01 00:00:00
TRACK 10 AUDIO
TITLE "Virus"
PERFORMER "Francesco Bearzatti Bizart Trio"
INDEX 00 07:16:27
FILE "10 - Virus.wav" WAVE
INDEX 01 00:00:00
TRACK 11 AUDIO
TITLE "Inner Smile"
PERFORMER "Francesco Bearzatti Bizart Trio"
INDEX 00 04:00:69
FILE "11 - Inner Smile.wav" WAVE
INDEX 01 00:00:00
Доп. информация: Videos by Enrico Peressini.
Any questions -> support@pro-jazz.com. По всем вопросам пишите -> support@pro-jazz.com
19:31
166
Нет комментариев. Ваш будет первым!