Вы используете незарегистрированную версию компонента "Вкладки"!

Поиск

(Free Jazz) Shoji Hano, Peter Brotzmann - Funny Rat/s 2 - 2008, FLAC (tracks+.cue), lossless

(Free Jazz) Shoji Hano, Peter Brotzmann - Funny Rat/s 2 - 2008, FLAC (tracks+.cue), lossless
Треклист:
Shoji Hano, Peter Brötzmann - Funny Rat/s 2
Жанр: Free Jazz
Страна-производитель диска: Japan
Год издания: 2008
Издатель (лейбл): Kootown Records / E.G.G. Music
Номер по каталогу: kooC-03
Аудиокодек: FLAC (*.flac)
Тип рипа: tracks+.cue
Битрейт аудио: lossless
Продолжительность: 1:12:38
Источник (релизер): CD
Наличие сканов в содержимом раздачи: да
Треклист:
1. A Jiggle Snaps the Lock (16:58)
2. An Essential Dream (25:41)
3. Frog Fuck (17:23)
4. Special Delivery (12:48)
 
Лог создания рипа
Exact Audio Copy V1.0 beta 2 from 29. April 2011
EAC extraction logfile from 10. October 2013, 21:37
Shoji Hano, Peter Brotzmann / Funny Rat/s 2
Used drive : Optiarc DVD RW AD-5280S Adapter: 1 ID: 1
Read mode : Secure
Utilize accurate stream : Yes
Defeat audio cache : Yes
Make use of C2 pointers : No
Read offset correction : 48
Overread into Lead-In and Lead-Out : No
Fill up missing offset samples with silence : Yes
Delete leading and trailing silent blocks : No
Null samples used in CRC calculations : Yes
Used interface : Installed external ASPI interface
Gap handling : Appended to previous track
Used output format : User Defined Encoder
Selected bitrate : 128 kBit/s
Quality : High
Add ID3 tag : No
Command line compressor : C:\Program Files\FLAC\flac.exe
Additional command line options : -V -8 -T "Genre=%genre%" -T "Artist=%artist%" -T "Title=%title%" -T "Album=%albumtitle%" -T "Date=%year%" -T "Tracknumber=%tracknr%" -T "Comment=%comment%" %source%
TOC of the extracted CD
Track | Start | Length | Start sector | End sector
---------------------------------------------------------
1 | 0:00.00 | 16:51.00 | 0 | 75824
2 | 16:51.00 | 25:49.68 | 75825 | 192067
3 | 42:40.68 | 17:12.48 | 192068 | 269515
4 | 59:53.41 | 12:51.06 | 269516 | 327346
Track 1
Filename C:\Shoji Hano, Peter Brotzmann (2008) - Funny Rat,s 2\01 - A Jiggle Snaps The Lock.wav
Pre-gap length 0:00:02.00
Peak level 100.0 %
Extraction speed 3.2 X
Track quality 100.0 %
Test CRC F1A2B1C4
Copy CRC F1A2B1C4
Track not present in AccurateRip database
Copy OK
Track 2
Filename C:\Shoji Hano, Peter Brotzmann (2008) - Funny Rat,s 2\02 - An Essential Dream.wav
Pre-gap length 0:00:02.00
Peak level 100.0 %
Extraction speed 4.4 X
Track quality 100.0 %
Test CRC E88B7F77
Copy CRC E88B7F77
Track not present in AccurateRip database
Copy OK
Track 3
Filename C:\Shoji Hano, Peter Brotzmann (2008) - Funny Rat,s 2\03 - Frog Fuck.wav
Pre-gap length 0:00:02.00
Peak level 100.0 %
Extraction speed 5.4 X
Track quality 100.0 %
Test CRC 27E56D67
Copy CRC 27E56D67
Track not present in AccurateRip database
Copy OK
Track 4
Filename C:\Shoji Hano, Peter Brotzmann (2008) - Funny Rat,s 2\04 - Special Delivery.wav
Pre-gap length 0:00:02.00
Peak level 100.0 %
Extraction speed 5.8 X
Track quality 100.0 %
Test CRC F3E938A5
Copy CRC F3E938A5
Track not present in AccurateRip database
Copy OK
None of the tracks are present in the AccurateRip database
No errors occurred
End of status report
==== Log checksum 35C473E8CAB3CD532134512836CA9D5242F3AEE5045230948AAF08366E2AC63A ====
 
Содержание индексной карты (.CUE)
REM GENRE Jazz
REM DATE 2008
REM DISCID 2C110C04
REM COMMENT "ExactAudioCopy v1.0b2"
PERFORMER "Shoji Hano, Peter Brotzmann"
TITLE "Funny Rat/s 2"
FILE "01 - A Jiggle Snaps The Lock.wav" WAVE
TRACK 01 AUDIO
TITLE "A Jiggle Snaps The Lock "
PERFORMER "Shoji Hano, Peter Brotzmann"
INDEX 01 00:00:00
TRACK 02 AUDIO
TITLE "An Essential Dream "
PERFORMER "Shoji Hano, Peter Brotzmann"
INDEX 00 16:49:00
FILE "02 - An Essential Dream.wav" WAVE
INDEX 01 00:00:00
TRACK 03 AUDIO
TITLE "Frog Fuck "
PERFORMER "Shoji Hano, Peter Brotzmann"
INDEX 00 25:47:68
FILE "03 - Frog Fuck.wav" WAVE
INDEX 01 00:00:00
TRACK 04 AUDIO
TITLE "Special Delivery "
PERFORMER "Shoji Hano, Peter Brotzmann"
INDEX 00 17:10:48
FILE "04 - Special Delivery.wav" WAVE
INDEX 01 00:00:00
 
Об альбоме (сборнике)
Recorded live by Tsutomu Suto at Candy, Chiba, Japan, April 5, 2007
Mastered by Tsutomu Suto in summer 2007
Design by Peter Brötzmann
Photos by Peter Brötzmann and Shoji Hano
Produced by Shoji Hano and Hiroc Uchiyama
Released in May 2008
 
Состав
Shoji Hano - drums
Peter Brötzmann - alto saxophone, tenor saxophone, clarinet, tarogato
По всем вопросам пишите личное сообщение пользователю M0p94ok.
19:31
142
Нет комментариев. Ваш будет первым!