Вы используете незарегистрированную версию компонента "Вкладки"!

Поиск

(Free Improvisation) Foxes Fox (Evan Parker, Steve Beresford, John Edwards, Louis Moholo) - Naan Tso - 2005, FLAC (image+.cue), lossless

(Free Improvisation) Foxes Fox (Evan Parker, Steve Beresford, John Edwards, Louis Moholo) - Naan Tso - 2005, FLAC (image+.cue), lossless
Треклист:
Foxes Fox / Naan Tso
Жанр: Free Improvisation
Страна-производитель диска: UK
Год издания: 2005
Издатель (лейбл): PSI
Номер по каталогу: 05.07
Аудиокодек: FLAC (*.flac)
Тип рипа: image+.cue
Битрейт аудио: lossless
Продолжительность: 67:81
Источник (релизер): cd
Наличие сканов в содержимом раздачи: нет
Треклист:
1. Naan Tso 30:58
2. Slightly Foxed 8:43
3. Reinecke Gefettet 13:56
4. Renard Pale 15:24
 
Лог создания рипа
Exact Audio Copy V1.0 beta 2 from 29. April 2011
EAC extraction logfile from 6. October 2013, 11:46
Foxes Fox / Naan Tso
Used drive : Optiarc DVD RW AD-7170A Adapter: 0 ID: 0
Read mode : Secure
Utilize accurate stream : Yes
Defeat audio cache : Yes
Make use of C2 pointers : No
Read offset correction : 48
Overread into Lead-In and Lead-Out : No
Fill up missing offset samples with silence : Yes
Delete leading and trailing silent blocks : No
Null samples used in CRC calculations : Yes
Used interface : Native Win32 interface for Win NT & 2000
Used output format : User Defined Encoder
Selected bitrate : 320 kBit/s
Quality : High
Add ID3 tag : No
Command line compressor : C:\Program Files\Exact Audio Copy\Flac\flac.exe
Additional command line options : -V -8 -T "Date=%year%" -T "Genre=%genre%" %source%
TOC of the extracted CD
Track | Start | Length | Start sector | End sector
---------------------------------------------------------
1 | 0:00.00 | 31:08.00 | 0 | 140099
2 | 31:08.00 | 8:49.61 | 140100 | 179835
3 | 39:57.61 | 14:03.43 | 179836 | 243103
4 | 54:01.29 | 15:24.47 | 243104 | 312450
Range status and errors
Selected range
Filename K:\ЕАС\Foxes Fox - Naan Tso.wav
Peak level 100.0 %
Extraction speed 2.0 X
Range quality 100.0 %
Test CRC 3AF0249D
Copy CRC 3AF0249D
Copy OK
No errors occurred
AccurateRip summary
Track 1 accurately ripped (confidence 3) [03E68E07] (AR v1)
Track 2 accurately ripped (confidence 3) [3CC81C32] (AR v1)
Track 3 accurately ripped (confidence 3) [A3800D15] (AR v1)
Track 4 accurately ripped (confidence 3) [BE6EB357] (AR v1)
All tracks accurately ripped
End of status report
==== Log checksum 5B384A49E23FBA248DDBA4B2780793FC4EF249BB7CA734A6F885A9DC11545E3A ====
 
Содержание индексной карты (.CUE)
REM GENRE Jazz
REM DATE 2005
REM DISCID 35104604
REM COMMENT "ExactAudioCopy v1.0b2"
PERFORMER "Foxes Fox"
TITLE "Naan Tso"
FILE "Foxes Fox - Naan Tso.flac" WAVE
TRACK 01 AUDIO
TITLE "Naan Tso"
PERFORMER "Foxes Fox"
ISRC 000000000000
INDEX 01 00:00:00
TRACK 02 AUDIO
TITLE "Slightly Foxed"
PERFORMER "Foxes Fox"
ISRC 000000000000
INDEX 00 30:58:00
INDEX 01 31:08:00
TRACK 03 AUDIO
TITLE "Reinecke Gefettet"
PERFORMER "Foxes Fox"
ISRC 000000000000
INDEX 00 39:51:61
INDEX 01 39:57:61
TRACK 04 AUDIO
TITLE "Renard Pale"
PERFORMER "Foxes Fox"
ISRC 000000000000
INDEX 00 53:54:29
INDEX 01 54:01:29
Доп. информация: Recorded on 27 October 2004 at Gateway Studios, London
 
Состав
Tenor Saxophone – Evan Parker
Piano – Steve Beresford
Double Bass – John Edwards
Percussion – Louis Moholo-Moholo
По всем вопросам пишите личное сообщение пользователю M0p94ok.
19:29
163
Нет комментариев. Ваш будет первым!