Вы используете незарегистрированную версию компонента "Вкладки"!

Поиск

(Free Jazz, CIMP) Matt Lavelle Quartet (Ras Moshe, Francois Grillot, Lou Grassi) - Handling The Moment - 2002, FLAC (tracks+.cue), lossless

(Free Jazz, CIMP) Matt Lavelle Quartet (Ras Moshe, Francois Grillot, Lou Grassi) - Handling The Moment - 2002, FLAC (tracks+.cue), lossless
Треклист:
Matt Lavelle Quartet (Ras Moshe, Francois Grillot, Lou Grassi) - Handling The Moment
Жанр: Free Jazz
Страна-производитель диска: USA
Год издания: 2002
Издатель (лейбл): CIMP
Номер по каталогу: #266
Страна: USA
Аудиокодек: FLAC (*.flac)
Тип рипа: tracks+.cue
Битрейт аудио: lossless
Продолжительность: 1:02:02
Источник: собственный диск
Наличие сканов в содержимом раздачи: 600 dpi
1 Amadou’s Passage
2 The Kitchen
3 Creator School
4 Chant 1
5 Chant 2
6 Roy Campbell
7 Mars and Aries
8 The 5 Faces
 
Лог создания рипа
Exact Audio Copy V1.0 beta 3 from 29. August 2011
EAC extraction logfile from 11. March 2013, 14:17
Matt Lavelle Quartet / Handing The Moment
Used drive : SlimtypeDVD A DS8A5SH Adapter: 0 ID: 1
Read mode : Secure
Utilize accurate stream : Yes
Defeat audio cache : Yes
Make use of C2 pointers : No
Read offset correction : 6
Overread into Lead-In and Lead-Out : No
Fill up missing offset samples with silence : Yes
Delete leading and trailing silent blocks : No
Null samples used in CRC calculations : Yes
Used interface : Native Win32 interface for Win NT & 2000
Gap handling : Appended to previous track
Used output format : User Defined Encoder
Selected bitrate : 128 kBit/s
Quality : High
Add ID3 tag : No
Command line compressor : C:\Program Files (x86)\Exact Audio Copy\Flac\flac.exe
Additional command line options : -V -8 -T "Genre=%genre%" -T "Artist=%artist%" -T "Title=%title%" -T "Album=%albumtitle%" -T "Date=%year%" -T "Tracknumber=%tracknr%" -T "Comment=%comment%" %source%
TOC of the extracted CD
Track | Start | Length | Start sector | End sector
---------------------------------------------------------
1 | 0:00.00 | 11:10.07 | 0 | 50256
2 | 11:10.07 | 10:09.06 | 50257 | 95937
3 | 21:19.13 | 7:36.08 | 95938 | 130145
4 | 28:55.21 | 7:31.06 | 130146 | 163976
5 | 36:26.27 | 4:39.09 | 163977 | 184910
6 | 41:05.36 | 7:59.70 | 184911 | 220905
7 | 49:05.31 | 7:24.16 | 220906 | 254221
8 | 56:29.47 | 5:34.19 | 254222 | 279290
Track 1
Filename D:\Handing The Moment (2002)\01. Amadou's Passage.wav
Pre-gap length 0:00:02.00
Peak level 80.1 %
Extraction speed 1.2 X
Track quality 100.0 %
Test CRC 62035A2F
Copy CRC 62035A2F
Copy OK
Track 2
Filename D:\Handing The Moment (2002)\02. The Kitchen.wav
Pre-gap length 0:00:02.58
Peak level 100.0 %
Extraction speed 1.5 X
Track quality 100.0 %
Test CRC 705BAC76
Copy CRC 705BAC76
Copy OK
Track 3
Filename D:\Handing The Moment (2002)\03. Creator School.wav
Pre-gap length 0:00:02.57
Peak level 56.0 %
Extraction speed 1.7 X
Track quality 100.0 %
Test CRC 9681CDAE
Copy CRC 9681CDAE
Copy OK
Track 4
Filename D:\Handing The Moment (2002)\04. Chant 1.wav
Pre-gap length 0:00:02.57
Peak level 100.0 %
Extraction speed 1.9 X
Track quality 100.0 %
Test CRC E8476659
Copy CRC E8476659
Copy OK
Track 5
Filename D:\Handing The Moment (2002)\05. Chant 2.wav
Peak level 46.4 %
Extraction speed 1.9 X
Track quality 100.0 %
Test CRC 82E39F3A
Copy CRC 82E39F3A
Copy OK
Track 6
Filename D:\Handing The Moment (2002)\06. Roy Campbell.wav
Pre-gap length 0:00:02.57
Peak level 79.0 %
Extraction speed 2.1 X
Track quality 100.0 %
Test CRC 313AE1FA
Copy CRC 313AE1FA
Copy OK
Track 7
Filename D:\Handing The Moment (2002)\07. Mars and Aries.wav
Pre-gap length 0:00:02.58
Peak level 91.3 %
Extraction speed 2.1 X
Track quality 99.9 %
Test CRC 0FB44BAF
Copy CRC 0FB44BAF
Copy OK
Track 8
Filename D:\Handing The Moment (2002)\08. The 5 Faces.wav
Pre-gap length 0:00:02.57
Peak level 72.9 %
Extraction speed 2.3 X
Track quality 100.0 %
Test CRC 81004514
Copy CRC 81004514
Copy OK
No errors occurred
End of status report
==== Log checksum 8BD51B2E83CC97DBA7257F9188F47BE9925E1FAC552CABF57A80F07C48C57458 ====
 
Содержание индексной карты (.CUE)
REM GENRE Jazz
REM DATE 2002
REM DISCID 7B0E8B08
REM COMMENT "ExactAudioCopy v1.0b3"
PERFORMER "Matt Lavelle Quartet"
TITLE "Handing The Moment"
FILE "01. Amadou's Passage.wav" WAVE
TRACK 01 AUDIO
TITLE "Amadou's Passage"
PERFORMER "Matt Lavelle Quartet"
INDEX 01 00:00:00
TRACK 02 AUDIO
TITLE "The Kitchen"
PERFORMER "Matt Lavelle Quartet"
INDEX 00 11:07:24
FILE "02. The Kitchen.wav" WAVE
INDEX 01 00:00:00
TRACK 03 AUDIO
TITLE "Creator School"
PERFORMER "Matt Lavelle Quartet"
INDEX 00 10:06:24
FILE "03. Creator School.wav" WAVE
INDEX 01 00:00:00
TRACK 04 AUDIO
TITLE "Chant 1"
PERFORMER "Matt Lavelle Quartet"
INDEX 00 07:33:26
FILE "04. Chant 1.wav" WAVE
INDEX 01 00:00:00
FILE "05. Chant 2.wav" WAVE
TRACK 05 AUDIO
TITLE "Chant 2"
PERFORMER "Matt Lavelle Quartet"
INDEX 01 00:00:00
TRACK 06 AUDIO
TITLE "Roy Campbell"
PERFORMER "Matt Lavelle Quartet"
INDEX 00 04:36:27
FILE "06. Roy Campbell.wav" WAVE
INDEX 01 00:00:00
TRACK 07 AUDIO
TITLE "Mars and Aries"
PERFORMER "Matt Lavelle Quartet"
INDEX 00 07:57:12
FILE "07. Mars and Aries.wav" WAVE
INDEX 01 00:00:00
TRACK 08 AUDIO
TITLE "The 5 Faces"
PERFORMER "Matt Lavelle Quartet"
INDEX 00 07:21:34
FILE "08. The 5 Faces.wav" WAVE
INDEX 01 00:00:00
 
Об альбоме
***
Thirty-two year old trumpeter Matt Lavelle hails from the Rockland County area of New York State. With this release, he reaps the benefits of a seasoned rhythm section, featuring seminal CIMP session drummer and solo artist Lou Grassi. In addition, Lavelle matches wits with tenor saxophonist Ras Moshe for an abundance of group-based highlights.
At times the band spurs remembrances of the late Art Blakey’s fabled Jazz Messengers, as they commingle open-ended improvisational flurries with compact exchanges amid breezy choruses. Grassi serves as the catalyst via his sweeping fills, snappy rim-shots and peppery beats. On “The Kitchen,” Moshe churns out angst-ridden lines atop bassist Francois Grillot’s blustery patterns. Here, the band conveys gobs of movement as Lavelle and Moshe separate into pairs with the rhythm section by way of various mini motifs.
Lavelle’s phraseology consists of rapid 16th notes mixed with poignant statements to counterbalance his penchant for detail and nuance. The musicians integrate some of Ornette Coleman's ideas into their arsenal while venturing off into various mood-evoking passages on “Chant 1” and “Chant 2.” Handling the Moment stays strong throughout, as the quartet intelligently covers a wide spectrum, spanning free-bop, mainstream and the avant-garde. Lavelle has seemingly embarked upon the fast track with this superfine exposition.
by GLENN ASTARITA
***
The first time that I can remember hearing Matt Lavelle (1970, Paterson, NJ) was, I believe, in November of 1999 when he sent me a demo tape. I was immediately struck by the edge and volatility—of his trumpet work in particular. As is often the case, while the parts may be promising, putting all of the various elements into the right combination and setting can often be frustrating and time-consuming. But poorly conceived art published in haste continues to haunt one long after the importance of immediacy has passed. And, to be frank, over the next two years Matt and I didn’t always see eye to eye and, at times, became a bit testy with each other. Eventually the elements common to both of our interests came closer and closer until we found ourselves in respectful agreement without, I believe, any sense of compromise. Getting there was not always pleasant and, in fact, we pretty much lost contact with each other for nearly a year. Then, in July of 2001, Matt reinitiated contact and sent me a tape and a letter saying, in part, “I added a firestorm sax player and talked to my man, Lou Grassi, who was down and (this) really brings out the best in everyone…”. Matt clearly felt “this is the one!” and I concurred: composition and exposition and finally the right group all in alignment. I was convinced and I thought I conveyed that to Matt, but either I was not clear or Matt was so conditioned to my qualified enthusiasm that he didn’t hear it. As if unleashed, he just kept sending me more rehearsal and performance tapes of the quartet. His letters were full of enthusiasm, often bursting with the passion of epiphany. Finally, in November, he stopped long enough to schedule this recording session, one that I have looked forward to with growing anticipation of great music and, yes—as always—some anxiety.
Except for Lou Grassi (1947, Summit, NJ), the veteran of the group and leader and sideman on a number of CIMP sessions, the rest of the group is largely unknown to me or to most of the public at this time. Ras Moshe (1968, NYC, NY) is just beginning to emerge from the New York City pot. Both Ras’ father and grandfather played professionally and, aside from those familial associations, he is a self-taught musician. Francois Grillot (1955, Burgundy, France), previously involved in the fusion scene of the ‘70s and ‘80s, came to the USA in 1980 and studied with Ed Summerlin and Stan Persky and, while recording infrequently, has been active in the NYC scene.
As for the leader, Matt toured Russia with his (Nyack, NY) high school band before playing with, and being mentored by, Hildred Humphries (Pittsburgh), a journeyman saxist who worked with a number of the mainstream legends and who, Matt says, taught him “what Swing was all about.” Following that, Matt organized a weekly jam session at Rainy Daze (NYC) that lasted about 18 months and where he began playing with Francois.
This group arrived mid afternoon, amiable and energized and rather conversant in some of the minutiae and history of improvised music, immediately relating and responding to the environment of The Spirit Room and its attachments. The sound check suggested a quartet with a very large sound, at times sounding like a hard blowing group of much bigger size. Things backed off a bit when we began the actual session and it took close to an hour before all of the parts came together (the precise moment coming on Roy Campbell), and it was during the second take that Lou and I caught each other’s eye and gave each other a nod of recognition. There’s a patience often necessary in capturing this music, one that—when allowed—pays off.
This is not a group that has clearly defined parameters, and for me that’s part of the appeal; it’s a bit off balance. Listen to Amadou’s Passage. Ras’ composition is set in a universally appealing swagger, but his tenor solo is a bit otherworldly and at times almost sounds lost, but resolves itself and turns what seemed, for me, near confusion into forceful statement. This is then taken in another direction with Matt’s raw and edgy trumpet work resolved, albeit briefly, by the rhythm before again suggesting unbalance then finally resolving the whole at its end. If your ears have become lazy, this should challenge. It is the essence of discovery in Jazz: not comfortable, not necessarily meant to be, but very compelling. And it is at the essence of what first attracted me to Matt’s work, that outward bound-ness, a confident foolishness that keeps you on the edge of attention with the relaxation coming after the conclusion.
The two days of recording were a laboratory of discovery. Much did not work; well, it worked by average standards, but it’s the above average that we aim for and that Matt, Ras, Francois, and Lou nailed over and over. Not always refined but very real. Creative improvised music is, at its genesis, not about refinement but about handling the moment and doing it with honesty, passion and musicality. Matt and his men offer up much to celebrate.
by Robert D. Rusch
 
Состав
Matt Lavelle, trumpet
Ras Moshe, tenor Saxophone
Francois Grillot, bass
Lou Grassi, drums
Any questions -> support@pro-jazz.com. По всем вопросам пишите -> support@pro-jazz.com
10:19
212
Нет комментариев. Ваш будет первым!