Вы используете незарегистрированную версию компонента "Вкладки"!

Поиск

(Avant-Garde, Contemporary Jazz) David Murray - Solo Live - 1997 (1980), FLAC (tracks+.cue), lossless

(Avant-Garde, Contemporary Jazz) David Murray - Solo Live - 1997 (1980), FLAC (tracks+.cue), lossless
Треклист:
David Murray / Solo Live
Жанр: Avant-Garde, Contemporary Jazz
Страна-производитель диска: Italy
Год издания: 1997 (1980)
Издатель (лейбл): CECMA Records
Номер по каталогу: CD001-2
Аудиокодек: FLAC (*.flac)
Тип рипа: tracks+.cue
Битрейт аудио: lossless
Продолжительность: 1:06:51
Источник (релизер): Max Monteiro
Наличие сканов в содержимом раздачи: да
Треклист:
01. Both Feet on the Ground (David Murray) 6:26
02. B.C. (David Murray) 9:06
03. Rag Tag (David Murray) 7:19
04. Sweet Lovely (David Murray) 7:13
05. Flowers for Albert (David Murray) 5:01
06. Body & Soul (Johnny Green) 8:07
07. We See (Thelonious Monk) 4:59
08. Untitled (David Murray) 5:06
09. Solo #1 (David Murray) 7:05
10. Solo #2 (David Murray) 6:30
Recorded at Nyon (Switzerland), May 30, 1980 except 6, 7, 8, recorded in New York, August 1980.
David Murray – Tenor Sax, Bass Clarinet
 
Лог создания рипа
Exact Audio Copy V1.0 beta 3 from 29. August 2011
EAC extraction logfile from 21. March 2013, 11:50
David Murray / Solo Live
Used drive : SlimtypeeNAU508 5 Adapter: 1 ID: 0
Read mode : Secure
Utilize accurate stream : Yes
Defeat audio cache : Yes
Make use of C2 pointers : No
Read offset correction : 6
Overread into Lead-In and Lead-Out : No
Fill up missing offset samples with silence : Yes
Delete leading and trailing silent blocks : No
Null samples used in CRC calculations : Yes
Used interface : Native Win32 interface for Win NT & 2000
Gap handling : Appended to previous track
Used output format : User Defined Encoder
Selected bitrate : 768 kBit/s
Quality : High
Add ID3 tag : No
Command line compressor : C:\Program Files (x86)\Exact Audio Copy\Flac\flac.exe
Additional command line options : -8 -V -T "ARTIST=%artist%" -T "TITLE=%title%" -T "ALBUM=%albumtitle%" -T "DATE=%year%" -T "TRACKNUMBER=%tracknr%" -T "GENRE=%genre%" -T "PERFORMER=%albuminterpret%" -T "COMPOSER=%composer%" %haslyrics%--tag-from-file=LYRICS="%lyricsfile%"%haslyrics% -T "ALBUMARTIST=%albumartist%" -T "DISCNUMBER=%cdnumber%" -T "TOTALDISCS=%totalcds%" -T "TOTALTRACKS=%numtracks%" -T "COMMENT=%comment%" %source% -o %dest%
TOC of the extracted CD
Track | Start | Length | Start sector | End sector
---------------------------------------------------------
1 | 0:00.00 | 6:25.50 | 0 | 28924
2 | 6:25.50 | 9:05.40 | 28925 | 69839
3 | 15:31.15 | 7:18.39 | 69840 | 102728
4 | 22:49.54 | 7:13.03 | 102729 | 135206
5 | 30:02.57 | 5:00.60 | 135207 | 157766
6 | 35:03.42 | 8:07.33 | 157767 | 194324
7 | 43:11.00 | 4:59.10 | 194325 | 216759
8 | 48:10.10 | 5:05.50 | 216760 | 239684
9 | 53:15.60 | 7:04.67 | 239685 | 271551
10 | 60:20.52 | 6:30.28 | 271552 | 300829
Track 1
Filename C:\EAC rips\01 - Both Feet on the Ground.wav
Pre-gap length 0:00:02.00
Peak level 89.0 %
Extraction speed 1.2 X
Track quality 100.0 %
Test CRC 642DEE7D
Copy CRC 642DEE7D
Accurately ripped (confidence 1) [EB415775] (AR v1)
Copy OK
Track 2
Filename C:\EAC rips\02 - B.C..wav
Peak level 99.9 %
Extraction speed 1.5 X
Track quality 100.0 %
Test CRC 16CF1A3E
Copy CRC 16CF1A3E
Accurately ripped (confidence 1) [DA9B83A5] (AR v1)
Copy OK
Track 3
Filename C:\EAC rips\03 - Rag Tag.wav
Peak level 90.1 %
Extraction speed 1.6 X
Track quality 100.0 %
Test CRC 63CF093E
Copy CRC 63CF093E
Accurately ripped (confidence 1) [AEA98E20] (AR v1)
Copy OK
Track 4
Filename C:\EAC rips\04 - Sweet Lovely.wav
Peak level 84.1 %
Extraction speed 1.8 X
Track quality 100.0 %
Test CRC 6B08F509
Copy CRC 6B08F509
Accurately ripped (confidence 1) [529E507E] (AR v1)
Copy OK
Track 5
Filename C:\EAC rips\05 - Flowers for Albert.wav
Peak level 82.1 %
Extraction speed 1.7 X
Track quality 99.9 %
Test CRC 34EFE0C0
Copy CRC 34EFE0C0
Accurately ripped (confidence 1) [6549F13A] (AR v1)
Copy OK
Track 6
Filename C:\EAC rips\06 - Body & Soul.wav
Peak level 99.9 %
Extraction speed 2.1 X
Track quality 100.0 %
Test CRC D56ECA32
Copy CRC D56ECA32
Accurately ripped (confidence 1) [65CCFA56] (AR v1)
Copy OK
Track 7
Filename C:\EAC rips\07 - We See.wav
Peak level 77.8 %
Extraction speed 1.9 X
Track quality 99.9 %
Test CRC 8632FA69
Copy CRC 8632FA69
Accurately ripped (confidence 1) [20049F9A] (AR v1)
Copy OK
Track 8
Filename C:\EAC rips\08 - Untitled.wav
Peak level 69.1 %
Extraction speed 2.2 X
Track quality 100.0 %
Test CRC 96066234
Copy CRC 96066234
Accurately ripped (confidence 1) [BCDD1E54] (AR v1)
Copy OK
Track 9
Filename C:\EAC rips\09 - Solo #1.wav
Peak level 83.1 %
Extraction speed 2.4 X
Track quality 100.0 %
Test CRC 6D7255E0
Copy CRC 6D7255E0
Accurately ripped (confidence 1) [5CAF4EB2] (AR v1)
Copy OK
Track 10
Filename C:\EAC rips\10 - Solo #2.wav
Peak level 79.4 %
Extraction speed 2.4 X
Track quality 100.0 %
Test CRC 686A78D3
Copy CRC 686A78D3
Accurately ripped (confidence 1) [821122D0] (AR v1)
Copy OK
All tracks accurately ripped
No errors occurred
End of status report
---- CUETools DB Plugin V2.1.4
[CTDB TOCID: 7NUxhTvS7PQxklVi6IaIJyvAjHU-] disk not present in database
Submit result: 7NUxhTvS7PQxklVi6IaIJyvAjHU- has been uploaded
==== Log checksum 75C066F83C159CA46493A333E92A51A4D1511A07E9E8DB28DD5FBA4D48644A4C ====
 
Содержание индексной карты (.CUE)
REM GENRE Jazz
REM DATE 1980
REM DISCID 8D0FAB0A
REM COMMENT "ExactAudioCopy v1.0b3"
PERFORMER "David Murray"
TITLE "Solo Live"
FILE "01 - Both Feet on the Ground.wav" WAVE
TRACK 01 AUDIO
TITLE "Both Feet on the Ground"
PERFORMER "David Murray"
INDEX 01 00:00:00
FILE "02 - B.C..wav" WAVE
TRACK 02 AUDIO
TITLE "B.C."
PERFORMER "David Murray"
INDEX 01 00:00:00
FILE "03 - Rag Tag.wav" WAVE
TRACK 03 AUDIO
TITLE "Rag Tag"
PERFORMER "David Murray"
INDEX 01 00:00:00
FILE "04 - Sweet Lovely.wav" WAVE
TRACK 04 AUDIO
TITLE "Sweet Lovely"
PERFORMER "David Murray"
INDEX 01 00:00:00
FILE "05 - Flowers for Albert.wav" WAVE
TRACK 05 AUDIO
TITLE "Flowers for Albert"
PERFORMER "David Murray"
INDEX 01 00:00:00
FILE "06 - Body & Soul.wav" WAVE
TRACK 06 AUDIO
TITLE "Body & Soul"
PERFORMER "David Murray"
INDEX 01 00:00:00
FILE "07 - We See.wav" WAVE
TRACK 07 AUDIO
TITLE "We See"
PERFORMER "David Murray"
INDEX 01 00:00:00
FILE "08 - Untitled.wav" WAVE
TRACK 08 AUDIO
TITLE "Untitled"
PERFORMER "David Murray"
INDEX 01 00:00:00
FILE "09 - Solo #1.wav" WAVE
TRACK 09 AUDIO
TITLE "Solo #1"
PERFORMER "David Murray"
INDEX 01 00:00:00
FILE "10 - Solo #2.wav" WAVE
TRACK 10 AUDIO
TITLE "Solo #2"
PERFORMER "David Murray"
INDEX 01 00:00:00
Any questions -> support@pro-jazz.com. По всем вопросам пишите -> support@pro-jazz.com
10:19
205
Нет комментариев. Ваш будет первым!