Вы используете незарегистрированную версию компонента "Вкладки"!

Поиск

(Free Jazz, Modern Creative) Tom Varner (feat. Frank London, Thomas Chapin, Steve Swell) - Long Night Big Day - 1991, FLAC (tracks+.cue), lossless

(Free Jazz, Modern Creative) Tom Varner (feat. Frank London, Thomas Chapin, Steve Swell) - Long Night Big Day - 1991, FLAC (tracks+.cue), lossless
Треклист:
Tom Varner (feat. Frank London, Thomas Chapin, Steve Swell) / Long Night Big Day
Жанр: Free Jazz, Modern Creative
Страна-производитель диска: US
Год издания: 1991
Издатель (лейбл): New World Records / Countercurrents
Номер по каталогу: 80410-2
Страна: US
Аудиокодек: FLAC (*.flac)
Тип рипа: tracks+.cue
Битрейт аудио: lossless
Продолжительность: 64:33
Источник (релизер): свой фирменный диск
Наличие сканов в содержимом раздачи:
Треклист:
1. Big Day 5:17
2. Search For Sanity 9:34
3. Wind Trio + 7:50
4. Prince Of Jamaica (Queens) 7:46
5. March For The Cocoon Shredders 3:43
6. Arts And Leisure 7:23
7. Prayer For Deliverance 5:29
8. Cabin In The Future 6:44
9. Long Night 10:00
 
Лог создания рипа
Exact Audio Copy V1.0 beta 3 from 29. August 2011
EAC extraction logfile from 21. March 2013, 19:10
Tom Varner / Long Night Big Day
Used drive : PIONEER DVD-RW DVR-115D Adapter: 0 ID: 0
Read mode : Secure
Utilize accurate stream : Yes
Defeat audio cache : Yes
Make use of C2 pointers : No
Read offset correction : 48
Overread into Lead-In and Lead-Out : No
Fill up missing offset samples with silence : Yes
Delete leading and trailing silent blocks : No
Null samples used in CRC calculations : Yes
Used interface : Installed external ASPI interface
Gap handling : Appended to previous track
Used output format : User Defined Encoder
Selected bitrate : 896 kBit/s
Quality : High
Add ID3 tag : No
Command line compressor : C:\Program Files\Exact Audio Copy\FLAC\FLAC.EXE
Additional command line options : -6 -V -T "ARTIST=%artist%" -T "TITLE=%title%" -T "ALBUM=%albumtitle%" -T "DATE=%year%" -T "TRACKNUMBER=%tracknr%" -T "GENRE=%genre%" -T "COMMENT=%comment%" -T "BAND=%albuminterpret%" -T "COMPOSER=%composer%" %haslyrics%--tag-from-file=LYRICS="%lyricsfile%"%haslyrics% -T "DISCNUMBER=%cdnumber%" -T "TOTALDISCS=%totalcds%" -T "TOTALTRACKS=%numtracks%" %hascover%--picture="%coverfile%"%hascover% %source% -o %dest%
TOC of the extracted CD
Track | Start | Length | Start sector | End sector
---------------------------------------------------------
1 | 0:00.00 | 5:21.30 | 0 | 24104
2 | 5:21.30 | 9:37.40 | 24105 | 67419
3 | 14:58.70 | 7:54.32 | 67420 | 103001
4 | 22:53.27 | 7:51.70 | 103002 | 138396
5 | 30:45.22 | 3:47.70 | 138397 | 155491
6 | 34:33.17 | 7:25.53 | 155492 | 188919
7 | 41:58.70 | 5:32.25 | 188920 | 213844
8 | 47:31.20 | 6:50.10 | 213845 | 244604
9 | 54:21.30 | 10:12.05 | 244605 | 290509
Track 1
Filename D:\zzz\01 - Big Day.wav
Pre-gap length 0:00:02.00
Peak level 97.2 %
Extraction speed 4.9 X
Track quality 100.0 %
Test CRC DDAC93F1
Copy CRC DDAC93F1
Accurately ripped (confidence 2) [C39E321E] (AR v1)
Copy OK
Track 2
Filename D:\zzz\02 - Search For Sanity.wav
Pre-gap length 0:00:02.55
Peak level 97.2 %
Extraction speed 6.0 X
Track quality 100.0 %
Test CRC F46F1AA0
Copy CRC F46F1AA0
Accurately ripped (confidence 2) [0D9F5F7D] (AR v1)
Copy OK
Track 3
Filename D:\zzz\03 - Wind Trio +.wav
Pre-gap length 0:00:01.30
Peak level 97.2 %
Extraction speed 6.3 X
Track quality 99.9 %
Test CRC AAFD0F90
Copy CRC AAFD0F90
Accurately ripped (confidence 2) [04EB81B5] (AR v1)
Copy OK
Track 4
Filename D:\zzz\04 - Prince Of Jamaica (Queens).wav
Pre-gap length 0:00:02.40
Peak level 84.2 %
Extraction speed 7.3 X
Track quality 100.0 %
Test CRC F24383FE
Copy CRC F24383FE
Accurately ripped (confidence 2) [D41F03AE] (AR v1)
Copy OK
Track 5
Filename D:\zzz\05 - March For The Cocoon Shredders.wav
Pre-gap length 0:00:03.42
Peak level 40.2 %
Extraction speed 7.1 X
Track quality 100.0 %
Test CRC 66003E86
Copy CRC 66003E86
Accurately ripped (confidence 2) [402CE539] (AR v1)
Copy OK
Track 6
Filename D:\zzz\06 - Arts And Leisure.wav
Pre-gap length 0:00:03.32
Peak level 64.2 %
Extraction speed 8.0 X
Track quality 100.0 %
Test CRC 3A80AC06
Copy CRC 3A80AC06
Accurately ripped (confidence 2) [963CFB5E] (AR v1)
Copy OK
Track 7
Filename D:\zzz\07 - Prayer For Deliverance.wav
Pre-gap length 0:00:02.48
Peak level 94.7 %
Extraction speed 7.5 X
Track quality 99.9 %
Test CRC C96E77B9
Copy CRC C96E77B9
Accurately ripped (confidence 2) [4FA97250] (AR v1)
Copy OK
Track 8
Filename D:\zzz\08 - Cabin In The Future.wav
Pre-gap length 0:00:02.65
Peak level 87.9 %
Extraction speed 8.7 X
Track quality 100.0 %
Test CRC 6D60A0CC
Copy CRC 6D60A0CC
Accurately ripped (confidence 2) [C5FE37DE] (AR v1)
Copy OK
Track 9
Filename D:\zzz\09 - Long Night.wav
Pre-gap length 0:00:02.35
Peak level 84.5 %
Extraction speed 9.3 X
Track quality 100.0 %
Test CRC 78C8E834
Copy CRC 78C8E834
Accurately ripped (confidence 2) [A92A7259] (AR v1)
Copy OK
All tracks accurately ripped
No errors occurred
End of status report
==== Log checksum CA181D68560AD920D91877CB7E88C9579487BA5951911F24C98B02EA26A65A1D ====
 
Содержание индексной карты (.CUE)
REM GENRE Jazz
REM DATE 1991
REM DISCID 6E0F2109
REM COMMENT "ExactAudioCopy v1.0b3"
PERFORMER "Tom Varner"
TITLE "Long Night Big Day"
FILE "01 - Big Day.wav" WAVE
TRACK 01 AUDIO
TITLE "Big Day"
PERFORMER "Tom Varner"
INDEX 01 00:00:00
TRACK 02 AUDIO
TITLE "Search For Sanity"
PERFORMER "Tom Varner"
INDEX 00 05:18:50
FILE "02 - Search For Sanity.wav" WAVE
INDEX 01 00:00:00
TRACK 03 AUDIO
TITLE "Wind Trio +"
PERFORMER "Tom Varner"
INDEX 00 09:36:10
FILE "03 - Wind Trio +.wav" WAVE
INDEX 01 00:00:00
TRACK 04 AUDIO
TITLE "Prince Of Jamaica (Queens)"
PERFORMER "Tom Varner"
INDEX 00 07:51:67
FILE "04 - Prince Of Jamaica (Queens).wav" WAVE
INDEX 01 00:00:00
TRACK 05 AUDIO
TITLE "March For The Cocoon Shredders"
PERFORMER "Tom Varner"
INDEX 00 07:48:28
FILE "05 - March For The Cocoon Shredders.wav" WAVE
INDEX 01 00:00:00
TRACK 06 AUDIO
TITLE "Arts And Leisure"
PERFORMER "Tom Varner"
INDEX 00 03:44:38
FILE "06 - Arts And Leisure.wav" WAVE
INDEX 01 00:00:00
TRACK 07 AUDIO
TITLE "Prayer For Deliverance"
PERFORMER "Tom Varner"
INDEX 00 07:23:05
FILE "07 - Prayer For Deliverance.wav" WAVE
INDEX 01 00:00:00
TRACK 08 AUDIO
TITLE "Cabin In The Future"
PERFORMER "Tom Varner"
INDEX 00 05:29:35
FILE "08 - Cabin In The Future.wav" WAVE
INDEX 01 00:00:00
TRACK 09 AUDIO
TITLE "Long Night"
PERFORMER "Tom Varner"
INDEX 00 06:47:50
FILE "09 - Long Night.wav" WAVE
INDEX 01 00:00:00
 
Лог проверки качества
d:\>d:\aucdtect -d/-m0 d:\zzz\*.wav
auCDtect: CD records authenticity detector, version 0.8.2
Copyright (c) 2004 Oleg Berngardt. All rights reserved.
Copyright (c) 2004 Alexander Djourik. All rights reserved.
------------------------------------------------------------
Processing file: [01. Big Day.wav]
------------------------------------------------------------
This track looks like CDDA with probability 99%
------------------------------------------------------------
Processing file: [02. Search For Sanity.wav]
------------------------------------------------------------
This track looks like CDDA with probability 100%
------------------------------------------------------------
Processing file: [03. Wind Trio +.wav]
------------------------------------------------------------
This track looks like CDDA with probability 100%
------------------------------------------------------------
Processing file: [04. Prince Of Jamaica (Queens).wav]
------------------------------------------------------------
This track looks like CDDA with probability 100%
------------------------------------------------------------
Processing file: [05. March For The Cocoon Shredders.wav]
------------------------------------------------------------
This track looks like CDDA with probability 100%
------------------------------------------------------------
Processing file: [06. Arts And Leisure.wav]
------------------------------------------------------------
This track looks like CDDA with probability 100%
------------------------------------------------------------
Processing file: [07. Prayer For Deliverance.wav]
------------------------------------------------------------
This track looks like CDDA with probability 100%
------------------------------------------------------------
Processing file: [08. Cabin In The Future.wav]
------------------------------------------------------------
This track looks like CDDA with probability 100%
------------------------------------------------------------
Processing file: [09. Long Night.wav]
------------------------------------------------------------
This track looks like CDDA with probability 100%
------------------------------------------------------------
Final Conclusion:
------------------------------------------------------------
These tracks looks like CDDA with probability 100%
Доп. информация:
 
Album Info
All music composed & arranged by Tom Varner
Producer: Tom Varner
Executive producer: Arthur Moorhead
Engineer: Steve Gaboury
Recorded live to 2-track at Sorcerer Sound, New York City, March 5 & 6, 1990
Mastered by Bob C. Ludwig, Masterdisk
Cover art: Lydia Dona, Genealogies of Collapse and the Deficiencies on its Borders (1990) - oil, acrylic, and sign paint on canvas
Cover design: Steve Byram
 
Состав
Phil Haynes: drums
Lindsey Horner: bass
Ed Jackson: alto sax
Rich Rothenberg: tenor sax
Tom Varner: french horn
Additional musicians on 3.:
Frank London: trumpet
Thomas Chapin: alto sax
Steve Swell: trombone
Any questions -> support@pro-jazz.com. По всем вопросам пишите -> support@pro-jazz.com
10:20
190
Нет комментариев. Ваш будет первым!