Вы используете незарегистрированную версию компонента "Вкладки"!

Поиск

(free jazz, CIMP ) [cd] Odean Pope - To the roach 2006, FLAC (tracks), lossless

(free jazz, CIMP ) [cd] Odean Pope - To the roach 2006, FLAC (tracks), lossless
Треклист:
(free jazz, CIMP ) [cd] Odean Pope - To the roach 2006, FLAC (tracks), lossless




Жанр:free jazz
Год выпуска: 2006
Издатель (лейбл):CIMP / 353
Формат: FLAC (tracks)
Битрейт аудио: lossless
Продолжительность 1`07`22
Источник: /what.cd

tracks

1 To The Roach 5:32
2 Bluesit 9:29
3 Harpology 13:02
4 Let's Meet Again 8:33
5 Plant Life 5:13
6 To The Roach Pt. 2 8:56
7 The Last Stop 3:56
8 Prayer 9:31
9 Where We'll Never Grow Old 2:35


 
.accurip
[CUETools log; Date: 31/07/15 17:33:36; Version: 2.1.4]
[CTDB TOCID: arx60_3SD5rzappHCGAj5GZca.s-] disk not present in database.
[AccurateRip ID: 001927d3-00b6cfc9-750fc909] found.
Track [ CRC | V2 ] Status
01 [e905edc6|c72f86d2] (0+0/2) No match
02 [d9e1e570|70a6e292] (0+0/2) No match
03 [680336f6|d1fbef79] (0+0/2) No match
04 [2e741c16|22200a33] (0+0/2) No match
05 [6e6d106b|135b54cc] (0+0/2) No match
06 [762e43fe|4471917c] (0+0/2) No match
07 [b3220922|ba7d7b0e] (0+0/2) No match
08 [0451cd97|8ca5253d] (0+0/2) No match
09 [b8f4648a|c383b2e7] (0+0/2) No match
Offsetted by 163:
01 [805af9ad] (1/2) Accurately ripped
02 [c065b276] (1/2) Accurately ripped
03 [56eddcb3] (1/2) Accurately ripped
04 [350c1323] (1/2) Accurately ripped
05 [b30acf7d] (1/2) Accurately ripped
06 [db3f7ab1] (1/2) Accurately ripped
07 [a7d7f33d] (1/2) Accurately ripped
08 [13ef3131] (1/2) Accurately ripped
09 [2fb1d3bd] (1/2) Accurately ripped
Track Peak [ CRC32 ] [W/O NULL]
-- 91.9 [4556B2A0] [052BB633]
01 89.1 [713F91F3] [E1B66FEE]
02 89.7 [FDADB40B] [AB9B9442]
03 79.1 [0CBC2AF1] [8FEF1804]
04 41.7 [2E0D91EC] [113D72E7]
05 75.3 [E0984A62] [0BF09BA8]
06 91.9 [2B123B72] [5171E053]
07 91.0 [96FEE62A] [40CAABE4]
08 26.9 [4C765451] [F0865F7F]
09 44.1 [6B97781C] [2ACC46DF]

http://www.discogs.com/Odean-Pope-Quartet-To-The-Roach/release/2107892
другие релизы
По всем вопросам пишите личное сообщение пользователю M0p94ok.
14:47
378
Нет комментариев. Ваш будет первым!