Вы используете незарегистрированную версию компонента "Вкладки"!

Поиск

(free jazz, CIMP ) [cd] David Schnitter, Dominic Duval , Newman Taylor Baker - The Spirit Of Things 2008, FLAC (tracks, lossless

(free jazz, CIMP ) [cd] David Schnitter, Dominic Duval , Newman Taylor Baker - The Spirit Of Things 2008, FLAC (tracks, lossless
Треклист:
(free jazz, CIMP ) [cd] David Schnitter, Dominic Duval , Newman Taylor Baker - The Spirit Of Things 2008, FLAC (tracks, lossless


David Schnitter, Dominic Duval , Newman Taylor Baker
The Spirit Of Things 2008
Жанр: free jazz
Год выпуска: CIMP
Издатель (лейбл): 2008
Формат: FLAC (tracks)
Битрейт аудио: lossless
Продолжительность 1`09`38
Источник: what.cd
David Schnitter (tenor saxophone)
Dominic Duval (bass)
Newman Taylor Baker (drums)

tracks

My Shining Hour
Criss Cross
Smoke Gets In Your Eyes
Jitterbug Waltz
Sampson
Never Let Me Go
Blues For John
In A Sentimental Mood
Bright Mississippi Georgia


 
.accurip
[CUETools log; Date: 30/07/15 14:41:11; Version: 2.1.4]
[CTDB TOCID: EygpEs57taSz1pa4JUumU5QgypY-] disk not present in database.
[AccurateRip ID: 0017ef36-00b05189-99105109] found.
Track [ CRC | V2 ] Status
01 [cec3eeb3|a639a0ff] (0+0/1) No match
02 [681eb71f|9e1bcaf4] (0+0/1) No match
03 [c9c3c9ad|a91e7b06] (0+0/1) No match
04 [a833a7d6|40a8c139] (0+0/1) No match
05 [3f96ccc9|c39d5764] (0+0/1) No match
06 [a50a31ea|be083b26] (0+0/1) No match
07 [7464d35a|625217cd] (0+0/1) No match
08 [c21e2f38|70a0d3d5] (0+0/1) No match
09 [b310aa8f|aace9f2b] (0+0/1) No match
Offsetted by 163:
01 [90c6260e] (1/1) Accurately ripped
02 [dc0540f3] (1/1) Accurately ripped
03 [90ccb9c8] (1/1) Accurately ripped
04 [df531c85] (1/1) Accurately ripped
05 [ee0642f2] (1/1) Accurately ripped
06 [83aadbab] (0/1) No match (V2 was not tested)
07 [d2949644] (1/1) Accurately ripped
08 [9ec0eb73] (1/1) Accurately ripped
09 [3dc61305] (1/1) Accurately ripped
Track Peak [ CRC32 ] [W/O NULL]
-- 96.1 [F70770A2] [6EE8CC72]
01 96.1 [F4DDCCA8] [0C8244FC]
02 93.0 [52A9F9AB] [4FB85A56]
03 34.3 [9CBFE8DD] [7953D594]
04 68.5 [25F2C97C] [598060FC]
05 92.7 [0DE279B3] [D76437E5]
06 78.7 [D71A32D5] [AD89C77F]
07 92.3 [A8CCC32A] [78E5AC44]
08 15.4 [FA3E1105] [B9E74659]
09 92.9 [77D7A986] [95CABB88]

другие релизы
По всем вопросам пишите личное сообщение пользователю M0p94ok.
14:46
183
Нет комментариев. Ваш будет первым!