Поиск

(Free Jazz) [CD] Marion Brown - Vista (1975) - 2015 {UCCI-9288}, FLAC (tracks+.cue), lossless

(Free Jazz) [CD] Marion Brown - Vista (1975) - 2015 {UCCI-9288}, FLAC (tracks+.cue), lossless
Треклист:
Marion Brown - Vista (1975)
Жанр: Free Jazz
Носитель: CD
Страна-производитель диска (релиза): Japan
Год издания: 2015
Издатель (лейбл): Impulse!/Verve/Universal Music Japan
Номер по каталогу: UCCI-9288
Аудиокодек: FLAC (*.flac)
Тип рипа: tracks+.cue
Битрейт аудио: lossless
Продолжительность: 41:23
Rip by ruskaval
Наличие сканов в содержимом раздачи: да
Треклист:
01. Maimoun (7:33)
02. Visions (5:40)
03. Vista (7:45)
04. Moment Of Truth (4:37)
05. Bismillahi 'Rrahmani' Rrahim (6:02)
06. Djinji (9:45)
 
 
Состав
Marion Brown — alto saxophone, wind chimes
Stanley Cowell (tracks 1-4), Anthony Davis — piano, electric piano
Bill Braynon — celeste, electric piano (tracks 1-4)
Reggie Workman — bass (tracks 1 & 3-6)
Jimmy Hopps — drums (tracks 1 & 3-5)
Ed Blackwell — drums, slit drums, (tracks 3 & 6)
Jose Goico — congas, tambourine (tracks 1 & 3-6)
Allen Murphy — vocals (track 2), bells (track 5)
Harold Budd - celeste, gong (track 5)
 
 
Лог создания рипа
Exact Audio Copy V1.1 from 23. June 2015
EAC extraction logfile from 31. July 2015, 1:34
Marion Brown / Vista
Used drive : TSSTcorpCDDVDW SE-208DB Adapter: 7 ID: 0
Read mode : Secure
Utilize accurate stream : Yes
Defeat audio cache : Yes
Make use of C2 pointers : No
Read offset correction : 6
Overread into Lead-In and Lead-Out : No
Fill up missing offset samples with silence : Yes
Delete leading and trailing silent blocks : No
Null samples used in CRC calculations : Yes
Used interface : Installed external ASPI interface
Gap handling : Appended to previous track
Used output format : User Defined Encoder
Selected bitrate : 1024 kBit/s
Quality : High
Add ID3 tag : No
Command line compressor : C:\Program Files (x86)\FLAC Frontend\tools\flac.exe
Additional command line options : -8 -V -T "ARTIST=%artist%" -T "TITLE=%title%" -T "ALBUM=%albumtitle%" -T "DATE=%year%" -T "TRACKNUMBER=%tracknr%" -T "TOTALTRACKS=%numtracks%" -T "GENRE=%genre%" -T "ALBUMARTIST=%albumartist%" -T "ALBUM ARTIST=%albumartist%" -T "COMMENT=EAC Secure Mode, Test & Copy, AccurateRip, FLAC -8" %source%
TOC of the extracted CD
Track | Start | Length | Start sector | End sector
---------------------------------------------------------
1 | 0:00.00 | 7:33.35 | 0 | 34009
2 | 7:33.35 | 5:40.00 | 34010 | 59509
3 | 13:13.35 | 7:44.65 | 59510 | 94374
4 | 20:58.25 | 4:36.70 | 94375 | 115144
5 | 25:35.20 | 6:02.15 | 115145 | 142309
6 | 31:37.35 | 9:45.15 | 142310 | 186199
Track 1
Filename M:\_EAC\Marion Brown - Vista (1975) [FLAC] {2015 Japan Impulse! Classics 50 Series}\01 - Maimoun.wav
Pre-gap length 0:00:02.00
Peak level 99.7 %
Extraction speed 1.0 X
Track quality 99.9 %
Test CRC 2658A807
Copy CRC 2658A807
Accurately ripped (confidence 2) [4A776CA3] (AR v2)
Copy OK
Track 2
Filename M:\_EAC\Marion Brown - Vista (1975) [FLAC] {2015 Japan Impulse! Classics 50 Series}\02 - Visions.wav
Pre-gap length 0:00:00.59
Peak level 86.6 %
Extraction speed 1.2 X
Track quality 100.0 %
Test CRC 3C5651AC
Copy CRC 3C5651AC
Accurately ripped (confidence 2) [EE19D516] (AR v2)
Copy OK
Track 3
Filename M:\_EAC\Marion Brown - Vista (1975) [FLAC] {2015 Japan Impulse! Classics 50 Series}\03 - Vista.wav
Peak level 76.7 %
Extraction speed 1.4 X
Track quality 100.0 %
Test CRC F15C3255
Copy CRC F15C3255
Accurately ripped (confidence 2) [5A02EC7B] (AR v2)
Copy OK
Track 4
Filename M:\_EAC\Marion Brown - Vista (1975) [FLAC] {2015 Japan Impulse! Classics 50 Series}\04 - Moment Of Truth.wav
Pre-gap length 0:00:00.24
Peak level 75.7 %
Extraction speed 1.4 X
Track quality 100.0 %
Test CRC E938D857
Copy CRC E938D857
Accurately ripped (confidence 2) [3BAFAAB8] (AR v2)
Copy OK
Track 5
Filename M:\_EAC\Marion Brown - Vista (1975) [FLAC] {2015 Japan Impulse! Classics 50 Series}\05 - Bismillahi 'Rrahmani' Rrahim.wav
Peak level 65.1 %
Extraction speed 1.4 X
Track quality 99.9 %
Test CRC 69EF54B3
Copy CRC 69EF54B3
Accurately ripped (confidence 2) [86BE21E7] (AR v2)
Copy OK
Track 6
Filename M:\_EAC\Marion Brown - Vista (1975) [FLAC] {2015 Japan Impulse! Classics 50 Series}\06 - Djinji.wav
Pre-gap length 0:00:01.49
Peak level 89.1 %
Extraction speed 1.7 X
Track quality 100.0 %
Test CRC 1FC37D19
Copy CRC 1FC37D19
Accurately ripped (confidence 2) [B6F632B5] (AR v2)
Copy OK
All tracks accurately ripped
No errors occurred
End of status report
==== Log checksum E100589FD164520B8304FDDC240EA173EF1DE44C789265B44BF2FF89DE16FFB4 ====
 
Содержание индексной карты (.CUE)
REM GENRE Jazz
REM DATE 1975
REM DISCID 5909B206
REM COMMENT "ExactAudioCopy v1.1"
PERFORMER "Marion Brown"
TITLE "Vista"
FILE "01 - Maimoun.wav" WAVE
TRACK 01 AUDIO
TITLE "Maimoun"
PERFORMER "Marion Brown"
INDEX 01 00:00:00
TRACK 02 AUDIO
TITLE "Visions"
PERFORMER "Marion Brown"
INDEX 00 07:32:51
FILE "02 - Visions.wav" WAVE
INDEX 01 00:00:00
FILE "03 - Vista.wav" WAVE
TRACK 03 AUDIO
TITLE "Vista"
PERFORMER "Marion Brown"
INDEX 01 00:00:00
TRACK 04 AUDIO
TITLE "Moment Of Truth"
PERFORMER "Marion Brown"
INDEX 00 07:44:41
FILE "04 - Moment Of Truth.wav" WAVE
INDEX 01 00:00:00
FILE "05 - Bismillahi 'Rrahmani' Rrahim.wav" WAVE
TRACK 05 AUDIO
TITLE "Bismillahi 'Rrahmani' Rrahim"
PERFORMER "Marion Brown"
INDEX 01 00:00:00
TRACK 06 AUDIO
TITLE "Djinji"
PERFORMER "Marion Brown"
INDEX 00 06:00:41
FILE "06 - Djinji.wav" WAVE
INDEX 01 00:00:00
По всем вопросам пишите личное сообщение пользователю M0p94ok.
14:48
248
Нет комментариев. Ваш будет первым!