Вы используете незарегистрированную версию компонента "Вкладки"!

Поиск

(Avant-Garde, Free Improvisation) [CD] Heilige Bimbam (Urs Bloechlinger, Christoph Gantert, Luigi Archetti, Urs Voerkel, Moritz Ruedisueli, Martin Gantenbein) - Entweder - 1998, FLAC (tracks+.cue), lossless

(Avant-Garde, Free Improvisation) [CD] Heilige Bimbam (Urs Bloechlinger, Christoph Gantert, Luigi Archetti, Urs Voerkel, Moritz Ruedisueli, Martin Gantenbein) - Entweder - 1998, FLAC (tracks+.cue), lossless
Треклист:
Heilige Bimbam / Entweder
Жанр: Avant-Garde, Free Improvisation
Носитель: CD
Страна-производитель диска (релиза): Switzerland
Год издания: 1998
Издатель (лейбл): Mass & Fieber
Номер по каталогу: M&F 98-03
Аудиокодек: FLAC (*.flac)
Тип рипа: tracks+.cue
Битрейт аудио: lossless
Продолжительность: 48:40
Источник (релизер): я
Наличие сканов в содержимом раздачи: да
Треклист:
1. Rüdibei (Blöchlinger, Gantenbein, Rüdisüli) 10:43
2. Friedrich 7:03
3. Gantesüli (Martin Gantenbein) 4:09
4. Billige Hamham (Archetti, Blöchlinger, Gantenbein, Rüdisüli, Voerkel) 3:34
5. Fish Knife 6:32
6. An Unanswered Question 11:23
7. Robosker 5:17
All compositions by Urs Blöchlinger except where indicated.
Recorded live on December 16 & 17, 1994 at Moods Jazz Club, Zurich.
Urs Blöchlinger – Saxes, Melodica
Christoph Gantert – Trumpet, Trombone
Luigi Archetti – Guitar
Urs Voerkel – Hammond
Moritz Rüdisüli – Bass
Martin Gantenbein – Drums
 
Лог создания рипа
Exact Audio Copy V1.0 beta 3 from 29. August 2011
EAC extraction logfile from 7. January 2014, 19:56
Heilige Bimbam / Entweder
Used drive : SlimtypeeNAU508 5 Adapter: 1 ID: 0
Read mode : Secure
Utilize accurate stream : Yes
Defeat audio cache : Yes
Make use of C2 pointers : No
Read offset correction : 6
Overread into Lead-In and Lead-Out : No
Fill up missing offset samples with silence : Yes
Delete leading and trailing silent blocks : No
Null samples used in CRC calculations : Yes
Used interface : Native Win32 interface for Win NT & 2000
Gap handling : Appended to previous track
Used output format : User Defined Encoder
Selected bitrate : 768 kBit/s
Quality : High
Add ID3 tag : No
Command line compressor : C:\Program Files (x86)\Exact Audio Copy\Flac\flac.exe
Additional command line options : -8 -V -T "ARTIST=%artist%" -T "TITLE=%title%" -T "ALBUM=%albumtitle%" -T "DATE=%year%" -T "TRACKNUMBER=%tracknr%" -T "GENRE=%genre%" -T "PERFORMER=%albuminterpret%" -T "COMPOSER=%composer%" %haslyrics%--tag-from-file=LYRICS="%lyricsfile%"%haslyrics% -T "ALBUMARTIST=%albumartist%" -T "DISCNUMBER=%cdnumber%" -T "TOTALDISCS=%totalcds%" -T "TOTALTRACKS=%numtracks%" -T "COMMENT=%comment%" %source% -o %dest%
TOC of the extracted CD
Track | Start | Length | Start sector | End sector
---------------------------------------------------------
1 | 0:00.20 | 10:42.55 | 20 | 48224
2 | 10:43.00 | 7:03.00 | 48225 | 79949
3 | 17:46.00 | 4:08.40 | 79950 | 98589
4 | 21:54.40 | 3:33.55 | 98590 | 114619
5 | 25:28.20 | 6:31.65 | 114620 | 144009
6 | 32:00.10 | 11:23.10 | 144010 | 195244
7 | 43:23.20 | 5:17.02 | 195245 | 219021
Track 1
Filename C:\EAC rips\01 - Rüdibei.wav
Pre-gap length 0:00:02.20
Peak level 97.0 %
Extraction speed 1.2 X
Track quality 99.9 %
Test CRC A95C50B8
Copy CRC A95C50B8
Track not present in AccurateRip database
Copy OK
Track 2
Filename C:\EAC rips\02 - Friedrich.wav
Pre-gap length 0:00:01.45
Peak level 86.1 %
Extraction speed 1.4 X
Track quality 100.0 %
Test CRC 6DE7BAA2
Copy CRC 6DE7BAA2
Track not present in AccurateRip database
Copy OK
Track 3
Filename C:\EAC rips\03 - Gantesüli.wav
Pre-gap length 0:00:01.45
Peak level 88.2 %
Extraction speed 1.5 X
Track quality 100.0 %
Test CRC EB7A6D57
Copy CRC EB7A6D57
Track not present in AccurateRip database
Copy OK
Track 4
Filename C:\EAC rips\04 - Billige Hambam.wav
Pre-gap length 0:00:01.45
Peak level 95.6 %
Extraction speed 1.5 X
Track quality 100.0 %
Test CRC 13446FC9
Copy CRC 13446FC9
Track not present in AccurateRip database
Copy OK
Track 5
Filename C:\EAC rips\05 - Fish Knife.wav
Pre-gap length 0:00:01.45
Peak level 93.7 %
Extraction speed 1.8 X
Track quality 100.0 %
Test CRC AA0A9EC4
Copy CRC AA0A9EC4
Track not present in AccurateRip database
Copy OK
Track 6
Filename C:\EAC rips\06 - An Unanswered Question.wav
Pre-gap length 0:00:01.45
Peak level 97.4 %
Extraction speed 2.0 X
Track quality 100.0 %
Test CRC 024DF944
Copy CRC 024DF944
Track not present in AccurateRip database
Copy OK
Track 7
Filename C:\EAC rips\07 - Robosker.wav
Pre-gap length 0:00:01.45
Peak level 85.2 %
Extraction speed 2.0 X
Track quality 100.0 %
Test CRC 2A412A01
Copy CRC 2A412A01
Track not present in AccurateRip database
Copy OK
None of the tracks are present in the AccurateRip database
No errors occurred
End of status report
---- CUETools DB Plugin V2.1.4
[CTDB TOCID: uaLVhAEkurDK7tsqgRcd8DFqPVo-] disk not present in database
Submit result: uaLVhAEkurDK7tsqgRcd8DFqPVo- has been uploaded
==== Log checksum 2B410ACA20C16835237B7880B403C5FE17372524C8BA4D858C2D5C6FDBF01F6C ====
 
Содержание индексной карты (.CUE)
REM GENRE Jazz
REM DATE 1998
REM DISCID 4F0B6807
REM COMMENT "ExactAudioCopy v1.0b3"
PERFORMER "Heilige Bimbam"
TITLE "Entweder"
FILE "01 - Rüdibei.wav" WAVE
TRACK 01 AUDIO
TITLE "Rüdibei"
PERFORMER "Heilige Bimbam"
FLAGS DCP
PREGAP 00:00:20
INDEX 01 00:00:00
TRACK 02 AUDIO
TITLE "Friedrich"
PERFORMER "Heilige Bimbam"
FLAGS DCP
INDEX 00 10:41:10
FILE "02 - Friedrich.wav" WAVE
INDEX 01 00:00:00
TRACK 03 AUDIO
TITLE "Gantesüli"
PERFORMER "Heilige Bimbam"
FLAGS DCP
INDEX 00 07:01:30
FILE "03 - Gantesüli.wav" WAVE
INDEX 01 00:00:00
TRACK 04 AUDIO
TITLE "Billige Hamham"
PERFORMER "Heilige Bimbam"
FLAGS DCP
INDEX 00 04:06:70
FILE "04 - Billige Hamham.wav" WAVE
INDEX 01 00:00:00
TRACK 05 AUDIO
TITLE "Fish Knife"
PERFORMER "Heilige Bimbam"
FLAGS DCP
INDEX 00 03:32:10
FILE "05 - Fish Knife.wav" WAVE
INDEX 01 00:00:00
TRACK 06 AUDIO
TITLE "An Unanswered Question"
PERFORMER "Heilige Bimbam"
FLAGS DCP
INDEX 00 06:30:20
FILE "06 - An Unanswered Question.wav" WAVE
INDEX 01 00:00:00
TRACK 07 AUDIO
TITLE "Robosker"
PERFORMER "Heilige Bimbam"
FLAGS DCP
INDEX 00 11:21:40
FILE "07 - Robosker.wav" WAVE
INDEX 01 00:00:00
По всем вопросам пишите личное сообщение пользователю M0p94ok.
14:48
221
Нет комментариев. Ваш будет первым!