Вы используете незарегистрированную версию компонента "Вкладки"!

Поиск

(free jazz, CIMP) [cd] Jay Rosen Trio (w/ Herb Robertson, Paul Smoker) ‎- Drums 'n Bugles (2002), FLAC (tracks+.cue), lossless

(free jazz, CIMP) [cd] Jay Rosen Trio (w/ Herb Robertson, Paul Smoker) ‎- Drums 'n Bugles (2002), FLAC (tracks+.cue), lossless
Треклист:
(free jazz, CIMP) [cd] Jay Rosen Trio (w/ Herb Robertson, Paul Smoker) ‎- Drums 'n Bugles (2002), FLAC (tracks+.cue), lossless


Jay Rosen Trio ‎- Drums 'n Bugles (2002)

Жанр:free jazz
Год выпуска: 2002
Издатель (лейбл):CIMP #253
Формат: FLAC (tracks+.cue)
Битрейт аудио: lossless
Продолжительность 50`49
Источник: what.cd

tracks

1 Transcendence 7:10
2 System(s) 5:56
3 Flair-Up 6:36
4 Solarity 3:56
5 D And B Core 2:50
6 Grace Through Courage 2:39
7 De-coded 5:43
8 The Others 5:35
9 Supports 5:53
10 Torrentials 1:54
11 Jaropean Dance 2:32


 
.log
Exact Audio Copy V1.0 beta 3 from 29. August 2011
EAC extraction logfile from 19. April 2015, 9:36
Jay Rosen Trio / Drums 'n Bugles
Used drive : SlimtypeDVD A DS8A5SH Adapter: 0 ID: 1
Read mode : Secure
Utilize accurate stream : Yes
Defeat audio cache : Yes
Make use of C2 pointers : No
Read offset correction : 6
Overread into Lead-In and Lead-Out : No
Fill up missing offset samples with silence : Yes
Delete leading and trailing silent blocks : No
Null samples used in CRC calculations : Yes
Used interface : Native Win32 interface for Win NT & 2000
Gap handling : Appended to previous track
Used output format : User Defined Encoder
Selected bitrate : 128 kBit/s
Quality : High
Add ID3 tag : No
Command line compressor : D:\Programs\flac-1.3.1-win\flac-1.3.1-win\win64\flac.exe
Additional command line options : -V -8 -T "Genre=%genre%" -T "Artist=%artist%" -T "Title=%title%" -T "Album=%albumtitle%" -T "Date=%year%" -T "Tracknumber=%tracknr%" -T "Comment=%comment%" %source%
TOC of the extracted CD
Track | Start | Length | Start sector | End sector
---------------------------------------------------------
1 | 0:00.00 | 7:10.32 | 0 | 32281
2 | 7:10.32 | 5:56.61 | 32282 | 59042
3 | 13:07.18 | 6:36.43 | 59043 | 88785
4 | 19:43.61 | 3:56.02 | 88786 | 106487
5 | 23:39.63 | 2:50.70 | 106488 | 119307
6 | 26:30.58 | 2:39.15 | 119308 | 131247
7 | 29:09.73 | 5:43.57 | 131248 | 157029
8 | 34:53.55 | 5:35.01 | 157030 | 182155
9 | 40:28.56 | 5:53.34 | 182156 | 208664
10 | 46:22.15 | 1:54.41 | 208665 | 217255
11 | 48:16.56 | 2:32.13 | 217256 | 228668
Track 1
Filename D:\Drums 'n Bugles\01 - Transcendence (for Katherine Duval).wav
Pre-gap length 0:00:02.00
Peak level 100.0 %
Extraction speed 1.1 X
Track quality 100.0 %
Test CRC E4B5A400
Copy CRC E4B5A400
Accurately ripped (confidence 1) [B00FD96F] (AR v2)
Copy OK
Track 2
Filename D:\Drums 'n Bugles\02 - System(s).wav
Pre-gap length 0:00:02.57
Peak level 100.0 %
Extraction speed 1.3 X
Track quality 100.0 %
Test CRC 5CC74E50
Copy CRC 5CC74E50
Accurately ripped (confidence 1) [17B102DF] (AR v2)
Copy OK
Track 3
Filename D:\Drums 'n Bugles\03 - Flair-Up.wav
Pre-gap length 0:00:02.57
Peak level 100.0 %
Extraction speed 1.5 X
Track quality 100.0 %
Test CRC CCE4DBE6
Copy CRC CCE4DBE6
Accurately ripped (confidence 1) [4110A3DD] (AR v2)
Copy OK
Track 4
Filename D:\Drums 'n Bugles\04 - Solarity.wav
Pre-gap length 0:00:02.57
Peak level 57.2 %
Extraction speed 1.3 X
Track quality 99.9 %
Test CRC E88FD1F5
Copy CRC E88FD1F5
Accurately ripped (confidence 1) [9D8E1C04] (AR v2)
Copy OK
Track 5
Filename D:\Drums 'n Bugles\05 - D And B Core.wav
Pre-gap length 0:00:02.57
Peak level 100.0 %
Extraction speed 1.5 X
Track quality 100.0 %
Test CRC AE842F88
Copy CRC AE842F88
Accurately ripped (confidence 1) [60B59C60] (AR v2)
Copy OK
Track 6
Filename D:\Drums 'n Bugles\06 - Grace Through Courage (for Billy Higgins).wav
Pre-gap length 0:00:02.57
Peak level 100.0 %
Extraction speed 1.5 X
Track quality 100.0 %
Test CRC A80B7D35
Copy CRC A80B7D35
Accurately ripped (confidence 1) [C5E09831] (AR v2)
Copy OK
Track 7
Filename D:\Drums 'n Bugles\07 - De-coded.wav
Pre-gap length 0:00:02.57
Peak level 100.0 %
Extraction speed 1.8 X
Track quality 100.0 %
Test CRC 4D549BB5
Copy CRC 4D549BB5
Accurately ripped (confidence 1) [FD9871DE] (AR v2)
Copy OK
Track 8
Filename D:\Drums 'n Bugles\08 - The Others.wav
Pre-gap length 0:00:02.57
Peak level 83.2 %
Extraction speed 1.9 X
Track quality 100.0 %
Test CRC 5DFC6F42
Copy CRC 5DFC6F42
Accurately ripped (confidence 1) [5D14EC17] (AR v2)
Copy OK
Track 9
Filename D:\Drums 'n Bugles\09 - Supports.wav
Pre-gap length 0:00:02.57
Peak level 65.3 %
Extraction speed 2.0 X
Track quality 100.0 %
Test CRC 1CF674F5
Copy CRC 1CF674F5
Accurately ripped (confidence 1) [0ED5BEDF] (AR v2)
Copy OK
Track 10
Filename D:\Drums 'n Bugles\10 - Torrentials.wav
Pre-gap length 0:00:02.57
Peak level 100.0 %
Extraction speed 1.4 X
Track quality 99.9 %
Test CRC 46B53A5D
Copy CRC 46B53A5D
Accurately ripped (confidence 1) [CDC4B44E] (AR v2)
Copy OK
Track 11
Filename D:\Drums 'n Bugles\11 - Jaropean Dance.wav
Pre-gap length 0:00:02.57
Peak level 100.0 %
Extraction speed 1.9 X
Track quality 100.0 %
Test CRC D340DC9F
Copy CRC D340DC9F
Accurately ripped (confidence 1) [A45F3396] (AR v2)
Copy OK
All tracks accurately ripped
No errors occurred
End of status report
==== Log checksum C95F5596190F7138E4238BF7CD9BBA5EA48AC121C953DF82EB1EE61EA0545E79 ====
 
.cue
REM GENRE Jazz
REM DATE 2002
REM DISCID A20BE80B
REM COMMENT "ExactAudioCopy v1.0b3"
PERFORMER "Jay Rosen Trio"
TITLE "Drums 'n Bugles"
FILE "01 - Transcendence (for Katherine Duval).wav" WAVE
TRACK 01 AUDIO
TITLE "Transcendence (for Katherine Duval)"
PERFORMER "Jay Rosen Trio"
INDEX 01 00:00:00
TRACK 02 AUDIO
TITLE "System(s)"
PERFORMER "Jay Rosen Trio"
INDEX 00 07:07:50
FILE "02 - System(s).wav" WAVE
INDEX 01 00:00:00
TRACK 03 AUDIO
TITLE "Flair-Up"
PERFORMER "Jay Rosen Trio"
INDEX 00 05:54:04
FILE "03 - Flair-Up.wav" WAVE
INDEX 01 00:00:00
TRACK 04 AUDIO
TITLE "Solarity"
PERFORMER "Jay Rosen Trio"
INDEX 00 06:33:61
FILE "04 - Solarity.wav" WAVE
INDEX 01 00:00:00
TRACK 05 AUDIO
TITLE "D And B Core"
PERFORMER "Jay Rosen Trio"
INDEX 00 03:53:20
FILE "05 - D And B Core.wav" WAVE
INDEX 01 00:00:00
TRACK 06 AUDIO
TITLE "Grace Through Courage (for Billy Higgins)"
PERFORMER "Jay Rosen Trio"
INDEX 00 02:48:13
FILE "06 - Grace Through Courage (for Billy Higgins).wav" WAVE
INDEX 01 00:00:00
TRACK 07 AUDIO
TITLE "De-coded"
PERFORMER "Jay Rosen Trio"
INDEX 00 02:36:33
FILE "07 - De-coded.wav" WAVE
INDEX 01 00:00:00
TRACK 08 AUDIO
TITLE "The Others"
PERFORMER "Jay Rosen Trio"
INDEX 00 05:41:00
FILE "08 - The Others.wav" WAVE
INDEX 01 00:00:00
TRACK 09 AUDIO
TITLE "Supports"
PERFORMER "Jay Rosen Trio"
INDEX 00 05:32:19
FILE "09 - Supports.wav" WAVE
INDEX 01 00:00:00
TRACK 10 AUDIO
TITLE "Torrentials"
PERFORMER "Jay Rosen Trio"
INDEX 00 05:50:52
FILE "10 - Torrentials.wav" WAVE
INDEX 01 00:00:00
TRACK 11 AUDIO
TITLE "Jaropean Dance"
PERFORMER "Jay Rosen Trio"
INDEX 00 01:51:59
FILE "11 - Jaropean Dance.wav" WAVE
INDEX 01 00:00:00

http://www.discogs.com/Jay-Rosen-Trio-Drums-n-Bugles/release/3219616
другие релизы
По всем вопросам пишите личное сообщение пользователю M0p94ok.
14:43
146
Нет комментариев. Ваш будет первым!