Вы используете незарегистрированную версию компонента "Вкладки"!

Поиск

(free jazz) [cd] James Finn - Great Spirit 2005, FLAC (tracks+.cue), lossless

(free jazz) [cd] James Finn - Great Spirit 2005, FLAC (tracks+.cue), lossless
Треклист:
(free jazz) [cd] James Finn - Great Spirit 2005, FLAC (tracks+.cue), lossless


James Finn - Great Spirit 2005

Жанр: free jazz
Год выпуска: 2005
Издатель (лейбл):Not Two / MW 763-2
Формат: FLAC (tracks+.cue)
Битрейт аудио: lossless
Продолжительность 56`49
Источник: what.cd

tracks

1 Great Spirit 13:38
2 Give Us Strength 12:21
3 Give Us Wisdom 5:17
4 To Deliver Your Song 5:42
5 Of Hope And Forgiveness 12:05
6 Of Love And Peace 7:34


 
.cue
REM DATE 2005
REM DISCID 550D5006
REM COMMENT "ExactAudioCopy v0.99pb3"
PERFORMER "James Finn"
TITLE "Great Spirit"
FILE "01. Great Spirit.flac" WAVE
TRACK 01 AUDIO
TITLE "Great Spirit"
PERFORMER "James Finn"
INDEX 01 00:00:00
FILE "02. Give Us Strength.flac" WAVE
TRACK 02 AUDIO
TITLE "Give Us Strength"
PERFORMER "James Finn"
INDEX 01 00:00:00
FILE "03. Give Us Wisdom.flac" WAVE
TRACK 03 AUDIO
TITLE "Give Us Wisdom"
PERFORMER "James Finn"
INDEX 01 00:00:00
FILE "04. To Deliver Your Song.flac" WAVE
TRACK 04 AUDIO
TITLE "To Deliver Your Song"
PERFORMER "James Finn"
INDEX 01 00:00:00
FILE "05. Of Hope and Forgiveness.flac" WAVE
TRACK 05 AUDIO
TITLE "Of Hope and Forgiveness"
PERFORMER "James Finn"
INDEX 01 00:00:00
FILE "06. Of Love and Peace.flac" WAVE
TRACK 06 AUDIO
TITLE "Of Love and Peace"
PERFORMER "James Finn"
INDEX 01 00:00:00
 
.accurip
[CUETools log; Date: 19.07.2015 14:47:59; Version: 2.1.5]
[CTDB TOCID: A6jYZhusiW7ILgPbW_FQ43vG8uI-] disk not present in database.
[AccurateRip ID: 000f5b7d-004f8601-550d5006] found.
Track [ CRC | V2 ] Status
01 [84948353|88435acd] (1+0/1) Accurately ripped
02 [7d0497a0|f03fcd7b] (1+0/1) Accurately ripped
03 [a558f9a7|96e22a95] (1+0/1) Accurately ripped
04 [8fbda2e0|e79a77b3] (1+0/1) Accurately ripped
05 [8513d2b6|41034eba] (1+0/1) Accurately ripped
06 [6c1fe854|62211389] (1+0/1) Accurately ripped
Track Peak [ CRC32 ] [W/O NULL]
-- 97,9 [08DADAC7] [A5029807]
01 94,7 [B8B2E8D9] [15B5C575]
02 94,7 [7CEDE296] [1C3129B8]
03 82,2 [AA8789C9] [336E4EFC]
04 97,9 [3A378487] [344008FC]
05 89,2 [8DFCE6E4] [64E39C54]
06 93,7 [FA5F86B8] [F151DC72]

http://www.discogs.com/James-Finn-Great-Spirit/release/2572685
другие релизы
По всем вопросам пишите личное сообщение пользователю M0p94ok.
14:44
247
Нет комментариев. Ваш будет первым!