Вы используете незарегистрированную версию компонента "Вкладки"!

Поиск

(free jazz) [cd] James Finn w/ Dominic Duval & Whit Dickey - Opening The Gates 2004, FLAC (tracks+.cue), lossless

(free jazz) [cd] James Finn w/ Dominic Duval & Whit Dickey - Opening The Gates 2004, FLAC (tracks+.cue), lossless
Треклист:
(free jazz) [cd] James Finn - Opening The Gates 2004, FLAC (tracks+.cue), lossless


James Finn - Opening The Gates 2004

Жанр:free jazz
Год выпуска: 2004
Издатель (лейбл):Cadence Jazz / CJR 1170
Формат: FLAC (tracks+.cue)
Битрейт аудио: lossless
Продолжительность 1`00`03
Источник: what.cd

tracks

1 Stone Birds Northward Helix 5:09
2 Opening The Gates 9:02
3 Starlight Extensions 8:43
4 Falling Blossoms Rising Moon 3:37
5 Spinning Pyramids Propelled 9:10
6 Truth Exiled Into Paradise 8:43
7 Transmissions Spheric 5:45
8 Prayer For The Dead 9:40


 
.cue
REM GENRE "Free Jazz"
REM DATE 2004
REM DISCID 640E1208
REM COMMENT "ExactAudioCopy v0.95b4"
PERFORMER "James Finn"
TITLE "Opening The Gates"
FILE "01. Stone Birds' Northward Helix.flac" WAVE
TRACK 01 AUDIO
TITLE "Stone Birds' Northward Helix"
PERFORMER "James Finn"
INDEX 01 00:00:00
TRACK 02 AUDIO
TITLE "Opening The Gates"
PERFORMER "James Finn"
INDEX 00 05:07:10
FILE "02. Opening The Gates.flac" WAVE
INDEX 01 00:00:00
TRACK 03 AUDIO
TITLE "Starlight Extensions"
PERFORMER "James Finn"
INDEX 00 08:59:20
FILE "03. Starlight Extensions.flac" WAVE
INDEX 01 00:00:00
TRACK 04 AUDIO
TITLE "Falling Blossoms Rising Moon"
PERFORMER "James Finn"
INDEX 00 08:40:34
FILE "04. Falling Blossoms Rising Moon.flac" WAVE
INDEX 01 00:00:00
TRACK 05 AUDIO
TITLE "Spinning Pyramids Propelled"
PERFORMER "James Finn"
INDEX 00 03:34:73
FILE "05. Spinning Pyramids Propelled.flac" WAVE
INDEX 01 00:00:00
TRACK 06 AUDIO
TITLE "Truth Exiled Into Paradise"
PERFORMER "James Finn"
INDEX 00 09:07:19
FILE "06. Truth Exiled Into Paradise.flac" WAVE
INDEX 01 00:00:00
TRACK 07 AUDIO
TITLE "Transmissions Spheric"
PERFORMER "James Finn"
INDEX 00 08:41:05
FILE "07. Transmissions Spheric.flac" WAVE
INDEX 01 00:00:00
TRACK 08 AUDIO
TITLE "Prayer For The Dead"
PERFORMER "James Finn"
INDEX 00 05:42:23
FILE "08. Prayer For The Dead.flac" WAVE
INDEX 01 00:00:00
 
.accurip
[CUETools log; Date: 19.07.2015 14:56:52; Version: 2.1.5]
[CTDB TOCID: 46lOJv0XPt3b2.3hJ3FVs1mGHYo-] disk not present in database.
[AccurateRip ID: 0011ccca-0077ccb5-640e1208] found.
Track [ CRC | V2 ] Status
01 [90510bc1|40e57d66] (0+0/2) No match
02 [300b9ac6|66eb12b6] (0+0/2) No match
03 [5b9d04f2|754dffae] (0+0/2) No match
04 [d5619daa|44d01530] (0+0/2) No match
05 [c2772738|5c75b304] (0+0/2) No match
06 [0da77239|15bb1170] (0+0/2) No match
07 [e04f68e1|269fd4b7] (0+0/2) No match
08 [0f094c8a|9a7a6dc2] (0+0/2) No match
Offsetted by -619:
01 [53d30c8f] (1/2) Accurately ripped
02 [8248cb07] (1/2) Accurately ripped
03 [2a7fd47d] (1/2) Accurately ripped
04 [fac1675b] (1/2) Accurately ripped
05 [b67182b3] (1/2) Accurately ripped
06 [4de43588] (1/2) Accurately ripped
07 [8f08e6cf] (1/2) Accurately ripped
08 [23f7e03e] (1/2) Accurately ripped
Offsetted by 48:
01 [854aafe1] (1/2) Accurately ripped
02 [5fd88a36] (1/2) Accurately ripped
03 [c17022c2] (1/2) Accurately ripped
04 [ef04fe1a] (1/2) Accurately ripped
05 [2aca4e08] (1/2) Accurately ripped
06 [9df8c1c9] (1/2) Accurately ripped
07 [f9392b01] (1/2) Accurately ripped
08 [d73c474a] (1/2) Accurately ripped
Track Peak [ CRC32 ] [W/O NULL]
-- 100,0 [8E87502F] [6BB619D8]
01 100,0 [B1858052] [A11E0DB4]
02 100,0 [707C67A0] [7A2C5A4D]
03 100,0 [B5FDB995] [4E322534]
04 100,0 [838A38D3] [8E21C9E0]
05 100,0 [27A56697] [72C9FD3F]
06 100,0 [791E6D0A] [CC06AD9C]
07 100,0 [9F68E9B8] [85566B06]
08 100,0 [E41B4F21] [77F7E0EA]

http://www.discogs.com/James-Finn-Opening-The-Gates/release/6493794
другие релизы
По всем вопросам пишите личное сообщение пользователю M0p94ok.
14:44
209
Нет комментариев. Ваш будет первым!