Вы используете незарегистрированную версию компонента "Вкладки"!

Поиск

(free jazz, Ogun) [cd] Chris McGregor - In His Good Time (Live in Paris 1977), FLAC (tracks+.cue), lossless

(free jazz, Ogun) [cd] Chris McGregor - In His Good Time (Live in Paris 1977), FLAC (tracks+.cue), lossless
Треклист:
(free jazz) [cd] Chris McGregor - In His Good Time (Live in Paris 1977), FLAC (tracks+.cue), lossless


Chris McGregor - In His Good Time (Live in Paris 1977)

Жанр: free jazz
Год выпуска: 1977
Издатель (лейбл):2012, Ogun / OGCD 038
Формат: FLAC (tracks+.cue)
Битрейт аудио: lossless
Продолжительность 1`13`30
Источник: what.cd

tracks

1 Green Hymn
2 Kwa Tebugo
3 Sonia
4 Call
5 Raincloud
6 Umhome
7 Burning Bush
8 Shekele
9 Yikiti
10 Mngqusho
11 In His Good Time
12 The Bride
13 Ududu Nombambula


 
.log
Exact Audio Copy V1.0 beta 3 from 29. August 2011
EAC extraction logfile from 24. July 2012, 13:22
Chris McGregor / In His Good Time
Used drive : ATAPI DVD A DH16ABSH Adapter: 2 ID: 1
Read mode : Secure
Utilize accurate stream : Yes
Defeat audio cache : Yes
Make use of C2 pointers : No
Read offset correction : 6
Overread into Lead-In and Lead-Out : No
Fill up missing offset samples with silence : Yes
Delete leading and trailing silent blocks : No
Null samples used in CRC calculations : Yes
Used interface : Native Win32 interface for Win NT & 2000
Gap handling : Appended to previous track
Used output format : User Defined Encoder
Selected bitrate : 768 kBit/s
Quality : High
Add ID3 tag : No
Command line compressor : C:\Program Files (x86)\Exact Audio Copy\FLAC\FLAC.EXE
Additional command line options : -6 -V -T "ARTIST=%artist%" -T "TITLE=%title%" -T "ALBUM=%albumtitle%" -T "DATE=%year%" -T "TRACKNUMBER=%tracknr%" -T "GENRE=%genre%" -T "COMMENT=%comment%" -T "BAND=%albuminterpret%" -T "ALBUMARTIST=%albuminterpret%" -T "COMPOSER=%composer%" %haslyrics%--tag-from-file=LYRICS="%lyricsfile%"%haslyrics% -T "DISCNUMBER=%cdnumber%" -T "TOTALDISCS=%totalcds%" -T "TOTALTRACKS=%numtracks%" %hascover%--picture="%coverfile%"%hascover% %source% -o %dest%
TOC of the extracted CD
Track | Start | Length | Start sector | End sector
---------------------------------------------------------
1 | 0:00.00 | 7:04.43 | 0 | 31842
2 | 7:04.43 | 9:25.46 | 31843 | 74263
3 | 16:30.14 | 8:47.66 | 74264 | 113854
4 | 25:18.05 | 7:40.71 | 113855 | 148425
5 | 32:59.01 | 3:06.24 | 148426 | 162399
6 | 36:05.25 | 9:27.72 | 162400 | 204996
7 | 45:33.22 | 4:51.22 | 204997 | 226843
8 | 50:24.44 | 5:06.01 | 226844 | 249794
9 | 55:30.45 | 4:15.71 | 249795 | 268990
10 | 59:46.41 | 4:07.13 | 268991 | 287528
11 | 63:53.54 | 4:17.33 | 287529 | 306836
12 | 68:11.12 | 2:09.56 | 306837 | 316567
13 | 70:20.68 | 3:09.40 | 316568 | 330782
Track 1
Filename C:\Users\owner\Uploads\Vibes\Chris McGregor - In His Good Time (1977) [FLAC]\01 - Green Hymn.wav
Pre-gap length 0:00:02.00
Peak level 95.2 %
Extraction speed 2.1 X
Track quality 100.0 %
Test CRC FF2790BC
Copy CRC FF2790BC
Track not present in AccurateRip database
Copy OK
Track 2
Filename C:\Users\owner\Uploads\Vibes\Chris McGregor - In His Good Time (1977) [FLAC]\02 - Kwa Tebugo.wav
Peak level 91.7 %
Extraction speed 2.5 X
Track quality 100.0 %
Test CRC 078B5A22
Copy CRC 078B5A22
Track not present in AccurateRip database
Copy OK
Track 3
Filename C:\Users\owner\Uploads\Vibes\Chris McGregor - In His Good Time (1977) [FLAC]\03 - Sonia.wav
Peak level 98.8 %
Extraction speed 2.5 X
Track quality 99.9 %
Test CRC 14AF37FD
Copy CRC 14AF37FD
Track not present in AccurateRip database
Copy OK
Track 4
Filename C:\Users\owner\Uploads\Vibes\Chris McGregor - In His Good Time (1977) [FLAC]\04 - Call.wav
Peak level 88.5 %
Extraction speed 3.2 X
Track quality 100.0 %
Test CRC B11B4075
Copy CRC B11B4075
Track not present in AccurateRip database
Copy OK
Track 5
Filename C:\Users\owner\Uploads\Vibes\Chris McGregor - In His Good Time (1977) [FLAC]\05 - Raincloud.wav
Peak level 83.0 %
Extraction speed 2.9 X
Track quality 100.0 %
Test CRC 33151337
Copy CRC 33151337
Track not present in AccurateRip database
Copy OK
Track 6
Filename C:\Users\owner\Uploads\Vibes\Chris McGregor - In His Good Time (1977) [FLAC]\06 - Umhome.wav
Peak level 98.8 %
Extraction speed 3.4 X
Track quality 100.0 %
Test CRC 78BFA5C8
Copy CRC 78BFA5C8
Track not present in AccurateRip database
Copy OK
Track 7
Filename C:\Users\owner\Uploads\Vibes\Chris McGregor - In His Good Time (1977) [FLAC]\07 - Burning Bush.wav
Peak level 90.9 %
Extraction speed 3.4 X
Track quality 100.0 %
Test CRC 05714D18
Copy CRC 05714D18
Track not present in AccurateRip database
Copy OK
Track 8
Filename C:\Users\owner\Uploads\Vibes\Chris McGregor - In His Good Time (1977) [FLAC]\08 - Shekele.wav
Peak level 98.8 %
Extraction speed 3.5 X
Track quality 100.0 %
Test CRC 9B69F29F
Copy CRC 9B69F29F
Track not present in AccurateRip database
Copy OK
Track 9
Filename C:\Users\owner\Uploads\Vibes\Chris McGregor - In His Good Time (1977) [FLAC]\09 - Yikiti.wav
Pre-gap length 0:00:21.70
Peak level 84.2 %
Extraction speed 2.8 X
Track quality 99.9 %
Test CRC E3AEAEAD
Copy CRC E3AEAEAD
Track not present in AccurateRip database
Copy OK
Track 10
Filename C:\Users\owner\Uploads\Vibes\Chris McGregor - In His Good Time (1977) [FLAC]\10 - Mngqusho.wav
Pre-gap length 0:00:02.15
Peak level 75.9 %
Extraction speed 3.8 X
Track quality 100.0 %
Test CRC D0129AA3
Copy CRC D0129AA3
Track not present in AccurateRip database
Copy OK
Track 11
Filename C:\Users\owner\Uploads\Vibes\Chris McGregor - In His Good Time (1977) [FLAC]\11 - In His Good Time.wav
Peak level 85.6 %
Extraction speed 4.0 X
Track quality 100.0 %
Test CRC 1AF6CE9F
Copy CRC 1AF6CE9F
Track not present in AccurateRip database
Copy OK
Track 12
Filename C:\Users\owner\Uploads\Vibes\Chris McGregor - In His Good Time (1977) [FLAC]\12 - The Bride.wav
Peak level 97.5 %
Extraction speed 3.5 X
Track quality 100.0 %
Test CRC 964A01A7
Copy CRC 964A01A7
Track not present in AccurateRip database
Copy OK
Track 13
Filename C:\Users\owner\Uploads\Vibes\Chris McGregor - In His Good Time (1977) [FLAC]\13 - Ududu Nombambula.wav
Peak level 73.2 %
Extraction speed 3.9 X
Track quality 100.0 %
Test CRC 6660B76C
Copy CRC 6660B76C
Track not present in AccurateRip database
Copy OK
None of the tracks are present in the AccurateRip database
No errors occurred
End of status report
==== Log checksum EAD5F0E5A714A8E6E4E82B174821D5B6599AD2C6B5280CE113CE6D3E44C11FEF ====
 
.cue
REM DISCID B9113A0D
REM COMMENT "ExactAudioCopy v1.0b3"
PERFORMER "Chris McGregor"
TITLE "In His Good Time"
FILE "01 - Green Hymn.wav" WAVE
TRACK 01 AUDIO
TITLE "Green Hymn"
PERFORMER "Chris McGregor"
INDEX 01 00:00:00
FILE "02 - Kwa Tebugo.wav" WAVE
TRACK 02 AUDIO
TITLE "Kwa Tebugo"
PERFORMER "Chris McGregor"
INDEX 01 00:00:00
FILE "03 - Sonia.wav" WAVE
TRACK 03 AUDIO
TITLE "Sonia"
PERFORMER "Chris McGregor"
INDEX 01 00:00:00
FILE "04 - Call.wav" WAVE
TRACK 04 AUDIO
TITLE "Call"
PERFORMER "Chris McGregor"
INDEX 01 00:00:00
FILE "05 - Raincloud.wav" WAVE
TRACK 05 AUDIO
TITLE "Raincloud"
PERFORMER "Chris McGregor"
INDEX 01 00:00:00
FILE "06 - Umhome.wav" WAVE
TRACK 06 AUDIO
TITLE "Umhome"
PERFORMER "Chris McGregor"
INDEX 01 00:00:00
FILE "07 - Burning Bush.wav" WAVE
TRACK 07 AUDIO
TITLE "Burning Bush"
PERFORMER "Chris McGregor"
INDEX 01 00:00:00
FILE "08 - Shekele.wav" WAVE
TRACK 08 AUDIO
TITLE "Shekele"
PERFORMER "Chris McGregor"
INDEX 01 00:00:00
TRACK 09 AUDIO
TITLE "Yikiti"
PERFORMER "Chris McGregor"
INDEX 00 04:44:06
FILE "09 - Yikiti.wav" WAVE
INDEX 01 00:00:00
TRACK 10 AUDIO
TITLE "Mngqusho"
PERFORMER "Chris McGregor"
INDEX 00 04:13:56
FILE "10 - Mngqusho.wav" WAVE
INDEX 01 00:00:00
FILE "11 - In His Good Time.wav" WAVE
TRACK 11 AUDIO
TITLE "In His Good Time"
PERFORMER "Chris McGregor"
INDEX 01 00:00:00
FILE "12 - The Bride.wav" WAVE
TRACK 12 AUDIO
TITLE "The Bride"
PERFORMER "Chris McGregor"
INDEX 01 00:00:00
FILE "13 - Ududu Nombambula.wav" WAVE
TRACK 13 AUDIO
TITLE "Ududu Nombambula"
PERFORMER "Chris McGregor"
INDEX 01 00:00:00
INDEX 02 02:54:16
 
.accurip
[CUETools log; Date: 29/07/15 12:40:02; Version: 2.1.4]
[CTDB TOCID: tC_ktAW2IyjU3C7USTM2Fc95.Ak-] found.
Track | CTDB Status
1 | (2/2) Accurately ripped
2 | (2/2) Accurately ripped
3 | (2/2) Accurately ripped
4 | (2/2) Accurately ripped
5 | (2/2) Accurately ripped
6 | (2/2) Accurately ripped
7 | (2/2) Accurately ripped
8 | (2/2) Accurately ripped
9 | (2/2) Accurately ripped
10 | (2/2) Accurately ripped
11 | (2/2) Accurately ripped
12 | (2/2) Accurately ripped
13 | (2/2) Accurately ripped
[AccurateRip ID: 00298d3c-019059fa-b9113a0d] disk not present in database.
Track Peak [ CRC32 ] [W/O NULL] [ LOG ]
-- 98.8 [3277890A] [81253DD5]
01 95.2 [FF2790BC] [79C541B5] CRC32
02 91.7 [078B5A22] [01784721] CRC32
03 98.8 [14AF37FD] [8EC7293A] CRC32
04 88.5 [B11B4075] [DC0A1FA2] CRC32
05 83.0 [33151337] [576ADF12] CRC32
06 98.8 [78BFA5C8] [3E75A548] CRC32
07 90.9 [05714D18] [0A7E22C2] CRC32
08 98.8 [9B69F29F] [EDF1704B] CRC32
09 84.2 [E3AEAEAD] [94AFB7AD] CRC32
10 75.9 [D0129AA3] [E76401F2] CRC32
11 85.6 [1AF6CE9F] [1CA86F97] CRC32
12 97.5 [964A01A7] [9C0AD3AD] CRC32
13 73.2 [6660B76C] [4A8AA82E] CRC32

http://www.discogs.com/Chris-McGregor-In-His-Good-Time/release/3729657
другие релизы
По всем вопросам пишите личное сообщение пользователю M0p94ok.
14:41
169
Нет комментариев. Ваш будет первым!