Вы используете незарегистрированную версию компонента "Вкладки"!

Поиск

(Free Jazz) Christian Vander Quartet - Au Sunset - 1999, FLAC (tracks+.cue) lossless

(Free Jazz) Christian Vander Quartet - Au Sunset - 1999, FLAC (tracks+.cue) lossless
Треклист:
Christian Vander Quartet - Au Sunset
Жанр: Free Jazz
Год выпуска диска: 1999
Производитель диска: Seventh Records / B00003E45Y
Аудио кодек: FLAC
Тип рипа: tracks+.cue
Битрейт аудио: lossless
Продолжительность: 71:01
Наличие сканов в содержимом раздачи:
Трэклист:
01. Brazilia (John Coltrane) - 13:48
02. Transition (John Coltrane) - 14:27
03. Impressions (John Coltrane) - 18:53
04. Naïma (John Coltrane) - 16:14
05. 65! (Christian Vander) - 7:39
Состав:
Yannick Rieu - saxophone ténor
Emmanuel Borghi - piano
Emmanuel Grimonprez - contrebasse
Christian Vander - batterie
Доп. информация: Enregistré au Sunset Jazz Club les 7, 8 & 9 janvier 1999
 
Отчёт EAC
Exact Audio Copy V0.99 prebeta 5 from 4. May 2009
EAC extraction logfile from 10. July 2010, 22:30
Christian Vander Quartet / Au Sunset
Used drive : SONY CD-RW CRX216E Adapter: 1 ID: 0
Read mode : Secure
Utilize accurate stream : Yes
Defeat audio cache : Yes
Make use of C2 pointers : No
Read offset correction : 6
Overread into Lead-In and Lead-Out : No
Fill up missing offset samples with silence : Yes
Delete leading and trailing silent blocks : No
Null samples used in CRC calculations : Yes
Used interface : Installed external ASPI interface
Gap handling : Appended to previous track
Used output format : User Defined Encoder
Selected bitrate : 1024 kBit/s
Quality : High
Add ID3 tag : No
Command line compressor : C:\Program Files\Exact Audio Copy\Flac\flac.exe
Additional command line options : -6 -V -T "ARTIST=%a" -T "TITLE=%t" -T "ALBUM=%g" -T "DATE=%y" -T "TRACKNUMBER=%n" -T "GENRE=%m" -T "COMMENT=%e" %s -o %d
TOC of the extracted CD
Track | Start | Length | Start sector | End sector
---------------------------------------------------------
1 | 0:00.00 | 13:44.18 | 0 | 61817
2 | 13:44.18 | 14:27.44 | 61818 | 126886
3 | 28:11.62 | 18:53.70 | 126887 | 211931
4 | 47:05.57 | 16:14.60 | 211932 | 285041
5 | 63:20.42 | 7:41.28 | 285042 | 319644
Track 1
Filename F:\WHAT CD\Christian Vander Quartet - Au Sunset\01 - Brazilia.wav
Pre-gap length 0:00:02.00
Peak level 100.0 %
Track quality 100.0 %
Test CRC A0733108
Copy CRC A0733108
Cannot be verified as accurate (confidence 1) [E580F8C0], AccurateRip returned [21251357]
Copy OK
No tracks could be verified as accurate
You may have a different pressing from the one(s) in the database
No errors occurred
End of status report
------------------------------------------------------------
Exact Audio Copy V0.99 prebeta 5 from 4. May 2009
EAC extraction logfile from 10. July 2010, 23:39
Christian Vander Quartet / Au Sunset
Used drive : SONY CD-RW CRX216E Adapter: 1 ID: 0
Read mode : Secure
Utilize accurate stream : Yes
Defeat audio cache : Yes
Make use of C2 pointers : No
Read offset correction : 6
Overread into Lead-In and Lead-Out : No
Fill up missing offset samples with silence : Yes
Delete leading and trailing silent blocks : No
Null samples used in CRC calculations : Yes
Used interface : Installed external ASPI interface
Gap handling : Appended to previous track
Used output format : User Defined Encoder
Selected bitrate : 1024 kBit/s
Quality : High
Add ID3 tag : No
Command line compressor : C:\Program Files\Exact Audio Copy\Flac\flac.exe
Additional command line options : -6 -V -T "ARTIST=%a" -T "TITLE=%t" -T "ALBUM=%g" -T "DATE=%y" -T "TRACKNUMBER=%n" -T "GENRE=%m" -T "COMMENT=%e" %s -o %d
TOC of the extracted CD
Track | Start | Length | Start sector | End sector
---------------------------------------------------------
1 | 0:00.00 | 13:44.18 | 0 | 61817
2 | 13:44.18 | 14:27.44 | 61818 | 126886
3 | 28:11.62 | 18:53.70 | 126887 | 211931
4 | 47:05.57 | 16:14.60 | 211932 | 285041
5 | 63:20.42 | 7:41.28 | 285042 | 319644
Track 2
Filename F:\WHAT CD\Christian Vander Quartet - Au Sunset\02 - Transition.wav
Peak level 83.1 %
Track quality 100.0 %
Test CRC 1C195373
Copy CRC 1C195373
Cannot be verified as accurate (confidence 1) [B2D663AB], AccurateRip returned [605E3492]
Copy OK
Track 3
Filename F:\WHAT CD\Christian Vander Quartet - Au Sunset\03 - Impressions.wav
Peak level 100.0 %
Track quality 100.0 %
Test CRC E9EA3C20
Copy CRC E9EA3C20
Cannot be verified as accurate (confidence 1) [128410CC], AccurateRip returned [69C4D95B]
Copy OK
Track 4
Filename F:\WHAT CD\Christian Vander Quartet - Au Sunset\04 - Naima.wav
Peak level 100.0 %
Track quality 100.0 %
Test CRC 5AEDB955
Copy CRC 5AEDB955
Cannot be verified as accurate (confidence 1) [523A6568], AccurateRip returned [D31F83B3]
Copy OK
Track 5
Filename F:\WHAT CD\Christian Vander Quartet - Au Sunset\05 - 65 !.wav
Peak level 100.0 %
Track quality 100.0 %
Test CRC 514C9A8B
Copy CRC 514C9A8B
Cannot be verified as accurate (confidence 1) [E6E9348A], AccurateRip returned [5EA8BC83]
Copy OK
No tracks could be verified as accurate
You may have a different pressing from the one(s) in the database
No errors occurred
End of status report
 
.cue
REM DISCID 4510A505
REM COMMENT "ExactAudioCopy v0.99pb5"
PERFORMER "Christian Vander Quartet"
TITLE "Au Sunset"
FILE "01 - Brazilia.wav" WAVE
TRACK 01 AUDIO
TITLE "Brazilia"
PERFORMER "Christian Vander Quartet"
INDEX 01 00:00:00
FILE "02 - Transition.wav" WAVE
TRACK 02 AUDIO
TITLE "Transition"
PERFORMER "Christian Vander Quartet"
INDEX 01 00:00:00
FILE "03 - Impressions.wav" WAVE
TRACK 03 AUDIO
TITLE "Impressions"
PERFORMER "Christian Vander Quartet"
INDEX 01 00:00:00
FILE "04 - Naima.wav" WAVE
TRACK 04 AUDIO
TITLE "Naima"
PERFORMER "Christian Vander Quartet"
INDEX 01 00:00:00
FILE "05 - 65 !.wav" WAVE
TRACK 05 AUDIO
TITLE "65 !"
PERFORMER "Christian Vander Quartet"
INDEX 01 00:00:00
 
AUDIOCHECKER v1.2
AUDIOCHECKER v1.2 - by Dester - opdester@freemail.hu
~~~~~~~~~~~~~~~~~
1 -===- C:\Program Files\BitComet\Downloads\Christian Vander Quartet - Au Sunset (1999)\01 - Brazilia.flac
Extracted successfully
Conclusion: This track looks like CDDA with probability 100%
2 -===- C:\Program Files\BitComet\Downloads\Christian Vander Quartet - Au Sunset (1999)\02 - Transition.flac
Extracted successfully
Conclusion: This track looks like CDDA with probability 100%
3 -===- C:\Program Files\BitComet\Downloads\Christian Vander Quartet - Au Sunset (1999)\03 - Impressions.flac
Extracted successfully
Conclusion: This track looks like CDDA with probability 100%
4 -===- C:\Program Files\BitComet\Downloads\Christian Vander Quartet - Au Sunset (1999)\04 - Naima.flac
Extracted successfully
Conclusion: This track looks like CDDA with probability 100%
5 -===- C:\Program Files\BitComet\Downloads\Christian Vander Quartet - Au Sunset (1999)\05 - 65 !.flac
Extracted successfully
Conclusion: This track looks like CDDA with probability 100%
источник: what.cd, Ludovico
По всем вопросам пишите личное сообщение пользователю M0p94ok.
07:00
148
Нет комментариев. Ваш будет первым!