Вы используете незарегистрированную версию компонента "Вкладки"!

Поиск

(Future Jazz / Abstract) The Necks - Athenaeum, Homebush, Quay & Raab (4CD) - 2002, FLAC (tracks+.cue) lossless

(Future Jazz / Abstract) The Necks - Athenaeum, Homebush, Quay & Raab (4CD) - 2002, FLAC (tracks+.cue) lossless
Треклист:
The Necks - Athenaeum, Homebush, Quay & Raab (4CD)
Жанр: Future Jazz / Abstract
Страна-производитель диска: Australia
Год издания диска: 2002
Издатель (лейбл): Fish of Milk
Номер по каталогу: FOM 0008
Аудио кодек: FLAC (*.flac)
Тип рипа: tracks+.cue
Битрейт аудио: lossless
Продолжительность: 49:05 + 43:01 + 53:43 + 49:25
Источник (релизер): net (grasprelease)
Наличие сканов в содержимом раздачи: да
Треклист:
1.1 Athenaeum 49:05
2.1 Homebush 43:02
3.1 Quay 53:44
4.1 Raab 49:25
Personnel:
Chris Abrahams, piano
Lloyd Swanton, bass
Tony Buck, drums
 
Лог создания рипа (EAC Log) CD1
Exact Audio Copy V0.99 prebeta 5 from 4. May 2009
EAC extraction logfile from 8. May 2010, 10:22
The Necks / Athenaeum
Used drive : Optiarc DVD RW AD-7203S Adapter: 2 ID: 0
Read mode : Secure
Utilize accurate stream : Yes
Defeat audio cache : Yes
Make use of C2 pointers : No
Read offset correction : 48
Overread into Lead-In and Lead-Out : No
Fill up missing offset samples with silence : Yes
Delete leading and trailing silent blocks : No
Null samples used in CRC calculations : Yes
Used interface : Native Win32 interface for Win NT & 2000
Gap handling : Appended to previous track
Used output format : User Defined Encoder
Selected bitrate : 320 kBit/s
Quality : High
Add ID3 tag : No
Command line compressor : C:\Program Files (x86)\FLAC\flac.exe
Additional command line options : -V -8 -T "artist=%a" -T "title=%t" -T "album=%g" -T "date=%y" -T "tracknumber=%n" -T "genre=%m" %s
TOC of the extracted CD
Track | Start | Length | Start sector | End sector
---------------------------------------------------------
1 | 0:00.00 | 49:05.02 | 0 | 220876
Track 1
Filename C:\EAC rips\The Necks\Athenaeum\01. Athenaeum.wav
Pre-gap length 0:00:02.00
Peak level 88.5 %
Track quality 100.0 %
Test CRC AA6F682E
Copy CRC AA6F682E
Accurately ripped (confidence 3) [D75875FA]
Copy OK
All tracks accurately ripped
No errors occurred
End of status report
 
Содержание индексной карты (.CUE) CD1
REM GENRE Jazz
REM DATE 2001
REM DISCID 020B8101
REM COMMENT "ExactAudioCopy v0.99pb5"
PERFORMER "The Necks"
TITLE "Athenaeum"
FILE "The Necks\Athenaeum\01. Athenaeum.wav" WAVE
TRACK 01 AUDIO
TITLE "Athenaeum"
PERFORMER "The Necks"
FLAGS DCP
INDEX 01 00:00:00
 
Лог создания рипа (EAC Log) CD2
Exact Audio Copy V0.99 prebeta 5 from 4. May 2009
EAC extraction logfile from 8. May 2010, 10:46
The Necks / Homebush
Used drive : Optiarc DVD RW AD-7203S Adapter: 2 ID: 0
Read mode : Secure
Utilize accurate stream : Yes
Defeat audio cache : Yes
Make use of C2 pointers : No
Read offset correction : 48
Overread into Lead-In and Lead-Out : No
Fill up missing offset samples with silence : Yes
Delete leading and trailing silent blocks : No
Null samples used in CRC calculations : Yes
Used interface : Native Win32 interface for Win NT & 2000
Gap handling : Appended to previous track
Used output format : User Defined Encoder
Selected bitrate : 320 kBit/s
Quality : High
Add ID3 tag : No
Command line compressor : C:\Program Files (x86)\FLAC\flac.exe
Additional command line options : -V -8 -T "artist=%a" -T "title=%t" -T "album=%g" -T "date=%y" -T "tracknumber=%n" -T "genre=%m" %s
TOC of the extracted CD
Track | Start | Length | Start sector | End sector
---------------------------------------------------------
1 | 0:00.00 | 43:01.63 | 0 | 193637
Track 1
Filename C:\EAC rips\The Necks\Homebush\01. Homebush.wav
Pre-gap length 0:00:02.00
Peak level 97.7 %
Track quality 100.0 %
Test CRC 68091CB2
Copy CRC 68091CB2
Accurately ripped (confidence 3) [79E6B64E]
Copy OK
All tracks accurately ripped
No errors occurred
End of status report
 
Содержание индексной карты (.CUE) CD2
REM GENRE Jazz
REM DATE 2002
REM DISCID 020A1501
REM COMMENT "ExactAudioCopy v0.99pb5"
PERFORMER "The Necks"
TITLE "Homebush"
FILE "The Necks\Homebush\01. Homebush.wav" WAVE
TRACK 01 AUDIO
TITLE "Homebush"
PERFORMER "The Necks"
FLAGS DCP
INDEX 01 00:00:00
 
Лог создания рипа (EAC Log) CD3
Exact Audio Copy V0.99 prebeta 5 from 4. May 2009
EAC extraction logfile from 8. May 2010, 13:59
The Necks / Quay
Used drive : Optiarc DVD RW AD-7203S Adapter: 2 ID: 0
Read mode : Secure
Utilize accurate stream : Yes
Defeat audio cache : Yes
Make use of C2 pointers : No
Read offset correction : 48
Overread into Lead-In and Lead-Out : No
Fill up missing offset samples with silence : Yes
Delete leading and trailing silent blocks : No
Null samples used in CRC calculations : Yes
Used interface : Native Win32 interface for Win NT & 2000
Gap handling : Appended to previous track
Used output format : User Defined Encoder
Selected bitrate : 320 kBit/s
Quality : High
Add ID3 tag : No
Command line compressor : C:\Program Files (x86)\FLAC\flac.exe
Additional command line options : -V -8 -T "artist=%a" -T "title=%t" -T "album=%g" -T "date=%y" -T "tracknumber=%n" -T "genre=%m" %s
TOC of the extracted CD
Track | Start | Length | Start sector | End sector
---------------------------------------------------------
1 | 0:00.00 | 53:43.57 | 0 | 241781
Track 1
Filename C:\EAC rips\The Necks\Quay\01. Quay.wav
Pre-gap length 0:00:02.00
Peak level 97.7 %
Track quality 100.0 %
Test CRC 96987EB0
Copy CRC 96987EB0
Accurately ripped (confidence 3) [E813F8AB]
Copy OK
All tracks accurately ripped
No errors occurred
End of status report
 
Содержание индексной карты (.CUE) CD3
REM GENRE Jazz
REM DATE 2002
REM DISCID 020C9701
REM COMMENT "ExactAudioCopy v0.99pb5"
PERFORMER "The Necks"
TITLE "Quay"
FILE "The Necks\Quay\01. Quay.wav" WAVE
TRACK 01 AUDIO
TITLE "Quay"
PERFORMER "The Necks"
FLAGS DCP
INDEX 01 00:00:00
 
Лог создания рипа (EAC Log) CD4
Exact Audio Copy V0.99 prebeta 5 from 4. May 2009
EAC extraction logfile from 8. May 2010, 13:23
The Necks / Raab
Used drive : Optiarc DVD RW AD-7203S Adapter: 2 ID: 0
Read mode : Secure
Utilize accurate stream : Yes
Defeat audio cache : Yes
Make use of C2 pointers : No
Read offset correction : 48
Overread into Lead-In and Lead-Out : No
Fill up missing offset samples with silence : Yes
Delete leading and trailing silent blocks : No
Null samples used in CRC calculations : Yes
Used interface : Native Win32 interface for Win NT & 2000
Gap handling : Appended to previous track
Used output format : User Defined Encoder
Selected bitrate : 320 kBit/s
Quality : High
Add ID3 tag : No
Command line compressor : C:\Program Files (x86)\FLAC\flac.exe
Additional command line options : -V -8 -T "artist=%a" -T "title=%t" -T "album=%g" -T "date=%y" -T "tracknumber=%n" -T "genre=%m" %s
TOC of the extracted CD
Track | Start | Length | Start sector | End sector
---------------------------------------------------------
1 | 0:00.00 | 49:25.08 | 0 | 222382
Track 1
Filename C:\EAC rips\The Necks\Raab\01. Raab.wav
Pre-gap length 0:00:02.00
Peak level 97.7 %
Track quality 100.0 %
Test CRC 8B2B2220
Copy CRC 8B2B2220
Accurately ripped (confidence 3) [847C25DF]
Copy OK
All tracks accurately ripped
No errors occurred
End of status report
 
Содержание индексной карты (.CUE) CD4
REM GENRE Jazz
REM DATE 2002
REM DISCID 020B9501
REM COMMENT "ExactAudioCopy v0.99pb5"
PERFORMER "The Necks"
TITLE "Raab"
FILE "01. Raab.flac" WAVE
TRACK 01 AUDIO
TITLE "Raab"
PERFORMER "The Necks"
FLAGS DCP
INDEX 01 00:00:00
 
Credits, Notes etc...
Credits
Mastered By - Paul Bryant (2)
Producer - Necks, The
Producer, Mixed By - Tim Whitten
Recorded By - Chris Abrahams (tracks: 1.1, 4.1) , Chris Peken (tracks: 3.1) , Peter Nelson (tracks: 2.1)
Notes
A collection of live recordings made in Australia and Europe throughout 1999 and 2001. Athenaeum (recorded Jan. 2001 at Athenaeum Theatre, Melbourne), Homebush (recorded Jan. 2001 at the Southee Complex, Sydney), Quay (Jan. 1999 at The Basement, Sydney) and Raab (recorded March 2001 at Musikschule Raab, Austria).
Any questions -> support@pro-jazz.com. По всем вопросам пишите -> support@pro-jazz.com
07:01
193
Нет комментариев. Ваш будет первым!