Вы используете незарегистрированную версию компонента "Вкладки"!

Поиск

(Fusion, Avant-Garde, Improvisation) Keep the Dog (Fred Frith, Rene Lussier, Zeena Parkins etc) - That House We Lived In (2CD) - 2001, FLAC (tracks+.cue) lossless

(Fusion, Avant-Garde, Improvisation) Keep the Dog (Fred Frith, Rene Lussier, Zeena Parkins etc) - That House We Lived In (2CD) - 2001, FLAC (tracks+.cue) lossless
Треклист:
Keep the Dog (Fred Frith, Rene Lussier, Zeena Parkins etc) - That House We Lived In (2CD)
Жанр: Fusion, Avant-Garde, Improvisation
Страна-производитель диска: UK
Год издания диска: 2001
Издатель (лейбл): ReR / Fred Records
Номер по каталогу: ReR/FRA 03
Аудио кодек: FLAC (*.flac)
Тип рипа: tracks+.cue
Битрейт аудио: lossless
Продолжительность: 49:42 + 46:43
Источник (релизер): net (grasprelease)
Наличие сканов в содержимом раздачи: да
Треклист:
Disc 1
01. Revelation / Bones 4:59
02. Rock and a Hard Place 5:45
03. Hola, On Danse! 2:20
04. Foot in Hole 7:38
05. Fanfare / Lizard's Tail 4:31
06. Suspended 2:02
07. Quick Sign 5:16
08. Propaganda Suite 8:37
09. Walking Song 5:32
10. Some Clouds Do 2:57
Disc 2
01. The Same Eye / Fives 5:37
02. No Legs / Slow Bones 7:13
03. That Home We Lived In / Candy Machine 3:24
04. The Trace 5:18
05. True Love (instrumental version) 4:01
06. Instant Party 3:07
07. Small Mercy II 3:34
08. Norrgarden Nyvla 3:13
09. Year of the Monkey / Dark as a Match 6:21
10. Domaine de Langendreer 4:52
Performers:
* Fred Frith – guitar, bass guitar, violin, voice
* René Lussier – guitar, bass guitar
* Jean Derome – alto saxophone, baritone saxophone, flute, guimbarde, voice
* Zeena Parkins – accordion, electric harp, piano, synthesizer, voice
* Charles Hayward – drums, found objects, melodica, voice
* Bob Ostertag – sampling keyboard
* Claudia Engelhart – live sound mix, DAT recording
Live in Austria, Italy, Germany, 1991
 
EAC Log CD1
EAC extraction logfile from 7. August 2007, 17:20 for CD
Fred Frith & Keep the Dog / That House We Lived In (Disc 1)
Used drive : _NEC DVD_RW ND-3520A Adapter: 1 ID: 0
Read mode : Secure with NO C2, accurate stream, disable cache
Read offset correction : 48
Overread into Lead-In and Lead-Out : No
Used output format : D:\Soft\flac-1.1.4-win\bin\flac.exe (User Defined Encoder)
128 kBit/s
Additional command line options : -V -8 -T "artist=%a" -T "title=%t" -T "album=%g" -T "date=%y" -T "tracknumber=%n" -T "genre=%m" %s
Other options :
Fill up missing offset samples with silence : Yes
Delete leading and trailing silent blocks : No
Native Win32 interface for Win NT & 2000
Track 1
Filename D:\torrent\Fred Frith And Keep The Dog - The House We Lived In (1991) [FLAC]\CD1\01 - Revelation (derome) , Bones (frith,laswell,maher).wav
Pre-gap length 0:00:02.00
Peak level 89.1 %
Track quality 100.0 %
Test CRC 155F009D
Copy CRC 155F009D
Copy OK
Track 2
Filename D:\torrent\Fred Frith And Keep The Dog - The House We Lived In (1991) [FLAC]\CD1\02 - Rock and a Hard Place.wav
Peak level 89.1 %
Track quality 99.9 %
Test CRC 7CA86C77
Copy CRC 7CA86C77
Copy OK
Track 3
Filename D:\torrent\Fred Frith And Keep The Dog - The House We Lived In (1991) [FLAC]\CD1\03 - Hola, on Danse! (frith,richard).wav
Peak level 89.1 %
Track quality 100.0 %
Test CRC 5EC33A91
Copy CRC 5EC33A91
Copy OK
Track 4
Filename D:\torrent\Fred Frith And Keep The Dog - The House We Lived In (1991) [FLAC]\CD1\04 - Foot in Hole.wav
Peak level 89.1 %
Track quality 100.0 %
Test CRC C363C3FB
Copy CRC C363C3FB
Copy OK
Track 5
Filename D:\torrent\Fred Frith And Keep The Dog - The House We Lived In (1991) [FLAC]\CD1\05 - Fanfare , Lizard's tail.wav
Peak level 89.1 %
Track quality 100.0 %
Test CRC 06297764
Copy CRC 06297764
Copy OK
Track 6
Filename D:\torrent\Fred Frith And Keep The Dog - The House We Lived In (1991) [FLAC]\CD1\06 - Suspended.wav
Peak level 89.1 %
Track quality 100.0 %
Test CRC 438C491F
Copy CRC 438C491F
Copy OK
Track 7
Filename D:\torrent\Fred Frith And Keep The Dog - The House We Lived In (1991) [FLAC]\CD1\07 - Quick Sign.wav
Peak level 89.1 %
Track quality 100.0 %
Test CRC 53A493D3
Copy CRC 53A493D3
Copy OK
Track 8
Filename D:\torrent\Fred Frith And Keep The Dog - The House We Lived In (1991) [FLAC]\CD1\08 - Propaganda Suite.wav
Peak level 89.1 %
Track quality 100.0 %
Test CRC E57694DB
Copy CRC E57694DB
Copy OK
Track 9
Filename D:\torrent\Fred Frith And Keep The Dog - The House We Lived In (1991) [FLAC]\CD1\09 - Walking Song.wav
Peak level 89.1 %
Track quality 99.9 %
Test CRC 041DF122
Copy CRC 041DF122
Copy OK
Track 10
Filename D:\torrent\Fred Frith And Keep The Dog - The House We Lived In (1991) [FLAC]\CD1\10 - Some Clouds Do.wav
Peak level 89.1 %
Track quality 100.0 %
Test CRC B77E9684
Copy CRC B77E9684
Copy OK
No errors occured
End of status report
 
EAC Log CD2
EAC extraction logfile from 7. August 2007, 14:56 for CD
Fred Frith & Keep the Dog / That House We Lived In (Disc 2)
Used drive : _NEC DVD_RW ND-3520A Adapter: 1 ID: 0
Read mode : Secure with NO C2, accurate stream, disable cache
Read offset correction : 48
Overread into Lead-In and Lead-Out : No
Used output format : D:\Soft\flac-1.1.4-win\bin\flac.exe (User Defined Encoder)
128 kBit/s
Additional command line options : -V -8 -T "artist=%a" -T "title=%t" -T "album=%g" -T "date=%y" -T "tracknumber=%n" -T "genre=%m" %s
Other options :
Fill up missing offset samples with silence : Yes
Delete leading and trailing silent blocks : No
Native Win32 interface for Win NT & 2000
Track 1
Filename D:\torrent\Fred Frith And Keep The Dog - The House We Lived In (1991) [FLAC]\CD2\01 - The Same Eye,Fives.wav
Pre-gap length 0:00:02.00
Peak level 89.1 %
Track quality 99.9 %
Test CRC A614C1A6
Copy CRC A614C1A6
Copy OK
Track 2
Filename D:\torrent\Fred Frith And Keep The Dog - The House We Lived In (1991) [FLAC]\CD2\02 - No Legs,Slow Bones.wav
Peak level 89.1 %
Track quality 99.9 %
Test CRC 2420A9C6
Copy CRC 2420A9C6
Copy OK
Track 3
Filename D:\torrent\Fred Frith And Keep The Dog - The House We Lived In (1991) [FLAC]\CD2\03 - That Home We Lived In,Candy Machine.wav
Peak level 89.1 %
Track quality 99.9 %
Test CRC 773E9E63
Copy CRC 773E9E63
Copy OK
Track 4
Filename D:\torrent\Fred Frith And Keep The Dog - The House We Lived In (1991) [FLAC]\CD2\04 - The Trace.wav
Peak level 89.1 %
Track quality 99.9 %
Test CRC EC899D7B
Copy CRC EC899D7B
Copy OK
Track 5
Filename D:\torrent\Fred Frith And Keep The Dog - The House We Lived In (1991) [FLAC]\CD2\05 - True Love.wav
Peak level 89.1 %
Track quality 100.0 %
Test CRC 5FF5B35A
Copy CRC 5FF5B35A
Copy OK
Track 6
Filename D:\torrent\Fred Frith And Keep The Dog - The House We Lived In (1991) [FLAC]\CD2\06 - Instant Party.wav
Peak level 89.1 %
Track quality 100.0 %
Test CRC 770667B7
Copy CRC 770667B7
Copy OK
Track 7
Filename D:\torrent\Fred Frith And Keep The Dog - The House We Lived In (1991) [FLAC]\CD2\07 - Small Mercy II.wav
Peak level 89.1 %
Track quality 100.0 %
Test CRC 3C34BBD2
Copy CRC 3C34BBD2
Copy OK
Track 8
Filename D:\torrent\Fred Frith And Keep The Dog - The House We Lived In (1991) [FLAC]\CD2\08 - Norrgarden Nyvla.wav
Peak level 89.1 %
Track quality 100.0 %
Test CRC 34314659
Copy CRC 34314659
Copy OK
Track 9
Filename D:\torrent\Fred Frith And Keep The Dog - The House We Lived In (1991) [FLAC]\CD2\09 - Year Of The Monkey,Dark As A Match.wav
Peak level 89.1 %
Track quality 100.0 %
Test CRC 3FE20B3D
Copy CRC 3FE20B3D
Copy OK
Track 10
Filename D:\torrent\Fred Frith And Keep The Dog - The House We Lived In (1991) [FLAC]\CD2\10 - Domaine De Langendreer.wav
Peak level 53.0 %
Track quality 100.0 %
Test CRC 30910350
Copy CRC 30910350
Copy OK
No errors occured
End of status report
 
Содержание индексной карты (.CUE) CD1
REM GENRE Rock
REM DATE 2001
REM DISCID 880BA60A
REM COMMENT "ExactAudioCopy v0.95b4"
PERFORMER "Fred Frith & Keep the Dog"
TITLE "That House We Lived In (Disc 1)"
FILE "01 - Revelation (derome) , Bones (frith,laswell,maher).wav" WAVE
TRACK 01 AUDIO
TITLE "Revelation (derome) / Bones (frith/laswell/maher)"
PERFORMER "Fred Frith & Keep the Dog"
FLAGS DCP
INDEX 01 00:00:00
FILE "02 - Rock and a Hard Place.wav" WAVE
TRACK 02 AUDIO
TITLE "Rock and a Hard Place"
PERFORMER "Fred Frith & Keep the Dog"
FLAGS DCP
INDEX 01 00:00:00
FILE "03 - Hola, on Danse! (frith,richard).wav" WAVE
TRACK 03 AUDIO
TITLE "Hola, on Danse! (frith/richard)"
PERFORMER "Fred Frith & Keep the Dog"
FLAGS DCP
INDEX 01 00:00:00
FILE "04 - Foot in Hole.wav" WAVE
TRACK 04 AUDIO
TITLE "Foot in Hole"
PERFORMER "Fred Frith & Keep the Dog"
FLAGS DCP
INDEX 01 00:00:00
FILE "05 - Fanfare , Lizard's tail.wav" WAVE
TRACK 05 AUDIO
TITLE "Fanfare / Lizard's tail"
PERFORMER "Fred Frith & Keep the Dog"
FLAGS DCP
INDEX 01 00:00:00
FILE "06 - Suspended.wav" WAVE
TRACK 06 AUDIO
TITLE "Suspended"
PERFORMER "Fred Frith & Keep the Dog"
FLAGS DCP
INDEX 01 00:00:00
FILE "07 - Quick Sign.wav" WAVE
TRACK 07 AUDIO
TITLE "Quick Sign"
PERFORMER "Fred Frith & Keep the Dog"
FLAGS DCP
INDEX 01 00:00:00
FILE "08 - Propaganda Suite.wav" WAVE
TRACK 08 AUDIO
TITLE "Propaganda Suite"
PERFORMER "Fred Frith & Keep the Dog"
FLAGS DCP
INDEX 01 00:00:00
FILE "09 - Walking Song.wav" WAVE
TRACK 09 AUDIO
TITLE "Walking Song"
PERFORMER "Fred Frith & Keep the Dog"
FLAGS DCP
INDEX 01 00:00:00
FILE "10 - Some Clouds Do.wav" WAVE
TRACK 10 AUDIO
TITLE "Some Clouds Do"
PERFORMER "Fred Frith & Keep the Dog"
FLAGS DCP
INDEX 01 00:00:00
 
Содержание индексной карты (.CUE) CD2
REM GENRE Avantgarde
REM DATE 1991
REM DISCID 870AF30A
REM COMMENT "ExactAudioCopy v0.95b4"
PERFORMER "Fred Frith & Keep the Dog"
TITLE "That House We Lived In (Disc 2)"
FILE "01 - The Same Eye,Fives.wav" WAVE
TRACK 01 AUDIO
TITLE "The Same Eye/Fives"
PERFORMER "Fred Frith & Keep the Dog"
FLAGS DCP
INDEX 01 00:00:00
FILE "02 - No Legs,Slow Bones.wav" WAVE
TRACK 02 AUDIO
TITLE "No Legs/Slow Bones"
PERFORMER "Fred Frith & Keep the Dog"
FLAGS DCP
INDEX 01 00:00:00
FILE "03 - That Home We Lived In,Candy Machine.wav" WAVE
TRACK 03 AUDIO
TITLE "That Home We Lived In/Candy Machine"
PERFORMER "Fred Frith & Keep the Dog"
FLAGS DCP
INDEX 01 00:00:00
FILE "04 - The Trace.wav" WAVE
TRACK 04 AUDIO
TITLE "The Trace"
PERFORMER "Fred Frith & Keep the Dog"
FLAGS DCP
INDEX 01 00:00:00
FILE "05 - True Love.wav" WAVE
TRACK 05 AUDIO
TITLE "True Love"
PERFORMER "Fred Frith & Keep the Dog"
FLAGS DCP
INDEX 01 00:00:00
FILE "06 - Instant Party.wav" WAVE
TRACK 06 AUDIO
TITLE "Instant Party"
PERFORMER "Fred Frith & Keep the Dog"
FLAGS DCP
INDEX 01 00:00:00
FILE "07 - Small Mercy II.wav" WAVE
TRACK 07 AUDIO
TITLE "Small Mercy II"
PERFORMER "Fred Frith & Keep the Dog"
FLAGS DCP
INDEX 01 00:00:00
FILE "08 - Norrgarden Nyvla.wav" WAVE
TRACK 08 AUDIO
TITLE "Norrgarden Nyvla"
PERFORMER "Fred Frith & Keep the Dog"
FLAGS DCP
INDEX 01 00:00:00
FILE "09 - Year Of The Monkey,Dark As A Match.wav" WAVE
TRACK 09 AUDIO
TITLE "Year Of The Monkey/Dark As A Match"
PERFORMER "Fred Frith & Keep the Dog"
FLAGS DCP
INDEX 01 00:00:00
FILE "10 - Domaine De Langendreer.wav" WAVE
TRACK 10 AUDIO
TITLE "Domaine De Langendreer"
PERFORMER "Fred Frith & Keep the Dog"
FLAGS DCP
INDEX 01 00:00:00
 
Credits, Info, Reviews...
Credits
Accordion, Harp [Electric], Piano, Synthesizer, Voice - Zeena Parkins
Drums, Performer [Found Objects], Melodica, Voice - Charles Hayward
Guitar - Renй Lussier
Guitar, Bass, Violin, Voice, Composed By, Producer - Fred Frith
Recorded By, Mixed By [Live] - Claudia Engelhart
Sampler - Bob Ostertag
Saxophone [Alto, Baritone], Flute, Performer [Guimbarde], Voice - Jean Derome
Notes
Recorded live to DAT 1991 at:
Theater Am Kornmarkt, Bregenz, Austria
Elizabethenbьhne, Salzburg, Austria
Kulturzentrum Wolkenstein, Stainach, Austria
Bahnhof Langendreer, Bochum, Germany
Fabrik, Hamburg, Germany
Manufaktur, Shondorf, Germany
Teatro Dada, Castelfranco Emilia, Italy
Shocking Club, Milano, Italy
Verona, Italy
//
A REVIEW FROM CLOUDANDCLOCKS.NET :
Fred Frith
Keep The Dog
(Fred Records/ReR)
Guitar player, multi-instrumentalist, composer Fred Frith surely needs no introduction. Starting with the first Henry Cow album, thirty years ago, he has travelled genres and - later - Continents. Just to mention a few experiences, we can recall Art Bears, Skeleton Crew, Massacre, his collaborations with Material and John Zorn, his duo projects with Chris Cutler and Henry Kaiser, his numerous solo records, his Guitar Quartet, his improvising work in very different contexts, his teaching activity and so on. An easy-to-envy position, where his catalogue is engaged in a friendly competition with his many new releases on a number of labels. But this can make life difficult for somebody who wants to know more but finds him/herself paralyzed by too much product.
A problem that in a way is only made worse by his new personal label, Fred Records, which is releasing some new titles and quite a few of his past albums that in many ways we could consider to be his "classic" releases. But some of those releases could help newcomers solve their dilemma: they could start with Guitar Solos ('74), a work whose exploratory nature remains largely intact; add the easy to enjoy Gravity ('80), in my opinion quite superior (cause of Zamla?) to the later (and also re-released) Speechless; and the almost-anthology of Step Across The Border ('91), to which I'd add the soon-to-be re-released Cheap At Half The Price ('83), with its nice songs. And if a double CD doesn't look like too much of a good thing, we could also add Keep The Dog: an album which presents live and unreleased versions of some of his compositions as played by a beautiful line-up, and which many long-time Frith admirers had waited for for quite some time.
Keep The Dog was the name of the group that Frith assembled at the end of the eighties in order to play live a part of his vast repertoire - improvisation included, of course. Since the versions that appear on this CD are from 1991 (the recordings were made in Austria, Germany and Italy) it's only natural that the sextet plays the material with a freshness, assurance and creativity which tell of a long work together. (Here we have to shed a tear to the disappearance of a circuit - and of an audience? These are not performances one gets after a week of rehearsals leading to a "prestigious premiere"...)
We have two excellent Canadian players: Jean Derome and Renй Lussier, the former on saxophones and flute, the latter on guitar and - sometimes - on bass, an instruments which is mostly played by Frith himself - he also plays violin, guitar and also sings. Very good keyboards, accordion, electric harp and - when the venue offered one - piano by Zeena Parkins. A limpid rhythm framework is offered by Charles Hayward, while Bob Ostertag's sampler is often indispensable but not always easy to hear.
The repertory comes from everywhere: there is Bones by Massacre; Foot In Hole off The Country Of Blinds, Skeleton Crew's second album, in a quite longer version; three tracks - Walking Song, Some Clouds Do and Instant Party - come from the aforementioned Cheap At Half The Price; The Trace is from Who Needs Enemies?, the second duo album recorded with Henry Kaiser; the famous Norrgеrden Nyvla and Year Of The Monkey are obviously from Gravity. I also liked Suspended, for piano, flute and sampler. Time has been kind to these melodies and arrangements, which now sound "classic". Taking for granted the fact that Lussier is an excellent guitarist, I would have liked to hear a bit more Frith on guitar, since in my opinion his style and timbre add a lot of personality to the whole (isn't it also true of his violin?).
Only a couple of criticisms. In the liner notes Frith writes about wanting to present as much as possible of the repertoire "within the time constraints of the format"; which is a very funny statements, since this double CD could be one hour longer before reaching the maximum limit that's technically possible; why not add other pieces, then? Or, maybe, cut some tracks, so as to make a single CD more affordable to newcomers? The other point is quite more subjective, and deals with the drummer or, better said, the use of the drums. I'll be clear: Charles Hayward is one of my favourite drummers. But if his clear sense of time had a certain function in the "fuzzy" atmosphere of This Heat and Camberwell Now, here - where the parts are very clearly stated, and also due to the hi-hat's high placing in the mix - it sometimes appears like the aural equivalent of the "you are here" sign.
-- Beppe Colli
Any questions -> support@pro-jazz.com. По всем вопросам пишите -> support@pro-jazz.com
06:59
163
Нет комментариев. Ваш будет первым!