Вы используете незарегистрированную версию компонента "Вкладки"!

Поиск

(Free Jazz) Chris McGregor's Brotherhood of Breath - Chris McGregor's Brotherhood of Breath - (1971) 1994, FLAC (tracks+.cue), lossless

Треклист:
Chris McGregor's Brotherhood of Breath / Chris McGregor's Brotherhood of Breath
Жанр: Free Jazz
Страна-производитель диска (релиза): Germany
Год издания: (1971) 1994
Издатель (лейбл): Neon Records/Repertoire Records
Номер по каталогу: REP4468-WP
Страна исполнителя (группы): UK
Аудиокодек: FLAC (*.flac)
Тип рипа: tracks+.cue
Битрейт аудио: lossless
Продолжительность: 0:46:40.
Источник (релизер): clustert
Наличие сканов в содержимом раздачи: да
Треклист:
01. MRA [0:05:02.12]
02. Davashe's Dream [0:07:28.38]
03. The Bride [0:07:38.10]
04. Andromeda [0:04:08.25]
05. Night Poem [0:20:40.55]
06. Union Special [0:01:42.10]
 
Лог создания рипа
Exact Audio Copy V1.0 beta 3 from 29. August 2011
Отчёт EAC об извлечении, выполненном 4. сентября 2015, 22:18
Chris McGregor's Brotherhood of Breath / Brotherhood of Breath
Дисковод: ASUS DRW-1814BLT Adapter: 4 ID: 0
Режим чтения : Достоверность
Использование точного потока : Да
Отключение кэша аудио : Да
Использование указателей C2 : Нет
Коррекция смещения при чтении : 6
Способность читать области Lead-in и Lead-out : Нет
Заполнение пропущенных сэмплов тишиной : Да
Удаление блоков с тишиной в начале и конце : Нет
При вычислениях CRC использовались нулевые сэмплы : Да
Интерфейс : Встроенный Win32-интерфейс для Win NT/2000
Обработка зазоров : Добавлено к предыдущему треку
Выходной формат : Пользовательский кодировщик
Выбранный битрейт : 128 kBit/s
Качество : Высокий
Добавление ID3-тега : Нет
Утилита сжатия : C:\Program Files\Exact Audio Copy\Flac\flac.exe
Дополнительные параметры : -V -8 -T "Genre=%genre%" -T "Artist=%artist%" -T "Title=%title%" -T "Album=%albumtitle%" -T "Date=%year%" -T "Tracknumber=%tracknr%" -T "Comment=EAC1.0b2 FLAC -8" %source%
TOC извлечённого CD
Трек | Старт | Длительность | Начальный сектор | Конечный сектор
---------------------------------------------------------------------
1 | 0:00.00 | 5:02.12 | 0 | 22661
2 | 5:02.12 | 7:28.38 | 22662 | 56299
3 | 12:30.50 | 7:38.10 | 56300 | 90659
4 | 20:08.60 | 4:08.25 | 90660 | 109284
5 | 24:17.10 | 20:40.55 | 109285 | 202339
6 | 44:57.65 | 1:42.10 | 202340 | 209999
Трек 1
Имя файла R:\Раздача 53\Chris McGregor's Brotherhood Of Breath - (1971) 1994 - Chris McGregor's Brotherhood Of Breath\01 MRA.wav
Длина предзазора 0:00:02.00
Пиковый уровень 98.4 %
Скорость извлечения 5.3 X
Качество трека 100.0 %
CRC теста B20A53D9
CRC копии B20A53D9
Точность не определена (достоверность 3) [C851699C], AccurateRip вернул [5E8120BF] (AR v2)
Копирование... OK
Трек 2
Имя файла R:\Раздача 53\Chris McGregor's Brotherhood Of Breath - (1971) 1994 - Chris McGregor's Brotherhood Of Breath\02 Davashe's Dream.wav
Длина предзазора 0:00:03.02
Пиковый уровень 84.6 %
Скорость извлечения 5.0 X
Качество трека 99.9 %
CRC теста 65322FE9
CRC копии 65322FE9
Точность не определена (достоверность 3) [0FC574C5], AccurateRip вернул [83CB9DAE] (AR v2)
Копирование... OK
Трек 3
Имя файла R:\Раздача 53\Chris McGregor's Brotherhood Of Breath - (1971) 1994 - Chris McGregor's Brotherhood Of Breath\03 The Bride.wav
Длина предзазора 0:00:03.13
Пиковый уровень 98.4 %
Скорость извлечения 5.8 X
Качество трека 99.9 %
CRC теста 0817F21D
CRC копии 0817F21D
Точность не определена (достоверность 3) [933A92A8], AccurateRip вернул [3B7070DC] (AR v2)
Копирование... OK
Трек 4
Имя файла R:\Раздача 53\Chris McGregor's Brotherhood Of Breath - (1971) 1994 - Chris McGregor's Brotherhood Of Breath\04 Andromeda.wav
Длина предзазора 0:00:02.48
Пиковый уровень 98.4 %
Скорость извлечения 5.6 X
Качество трека 99.9 %
CRC теста E81F5B6D
CRC копии E81F5B6D
Точность не определена (достоверность 3) [064614FC], AccurateRip вернул [984020B0] (AR v2)
Копирование... OK
Трек 5
Имя файла R:\Раздача 53\Chris McGregor's Brotherhood Of Breath - (1971) 1994 - Chris McGregor's Brotherhood Of Breath\05 Night Poem.wav
Длина предзазора 0:00:03.23
Пиковый уровень 98.4 %
Скорость извлечения 9.5 X
Качество трека 100.0 %
CRC теста 9CF83190
CRC копии 9CF83190
Точность не определена (достоверность 3) [4BD33ACD], AccurateRip вернул [AFB24199] (AR v2)
Копирование... OK
Трек 6
Имя файла R:\Раздача 53\Chris McGregor's Brotherhood Of Breath - (1971) 1994 - Chris McGregor's Brotherhood Of Breath\06 Union Special.wav
Длина предзазора 0:00:03.13
Пиковый уровень 98.4 %
Скорость извлечения 7.5 X
Качество трека 100.0 %
CRC теста F64F57E2
CRC копии F64F57E2
Точность не определена (достоверность 3) [BC559D51], AccurateRip вернул [030A2516] (AR v2)
Копирование... OK
Ни один трек не прошёл проверки на точность
В вашей базе может быть иной вариант штамповки диска
Ошибок не произошло
Конец отчёта
==== Контрольная сумма отчёта 04550A91D569275CBB64CC7CBDBCE437492BEE26B871C977CA782A0C405201A9 ====
 
Содержание индексной карты (.CUE)
REM GENRE "Free Jazz"
REM DATE 1994
REM DISCID 480AF006
REM COMMENT "ExactAudioCopy v1.0b3"
PERFORMER "Chris McGregor's Brotherhood of Breath"
TITLE "Brotherhood of Breath"
FILE "01 MRA.wav" WAVE
TRACK 01 AUDIO
TITLE "MRA"
PERFORMER "Chris McGregor's Brotherhood of Breath"
INDEX 01 00:00:00
TRACK 02 AUDIO
TITLE "Davashe's Dream"
PERFORMER "Chris McGregor's Brotherhood of Breath"
INDEX 00 04:59:10
FILE "02 Davashe's Dream.wav" WAVE
INDEX 01 00:00:00
TRACK 03 AUDIO
TITLE "The Bride"
PERFORMER "Chris McGregor's Brotherhood of Breath"
INDEX 00 07:25:25
FILE "03 The Bride.wav" WAVE
INDEX 01 00:00:00
TRACK 04 AUDIO
TITLE "Andromeda"
PERFORMER "Chris McGregor's Brotherhood of Breath"
INDEX 00 07:35:37
FILE "04 Andromeda.wav" WAVE
INDEX 01 00:00:00
TRACK 05 AUDIO
TITLE "Night Poem"
PERFORMER "Chris McGregor's Brotherhood of Breath"
INDEX 00 04:05:02
FILE "05 Night Poem.wav" WAVE
INDEX 01 00:00:00
TRACK 06 AUDIO
TITLE "Union Special"
PERFORMER "Chris McGregor's Brotherhood of Breath"
INDEX 00 20:37:42
FILE "06 Union Special.wav" WAVE
INDEX 01 00:00:00
По всем вопросам пишите личное сообщение пользователю M0p94ok.
15:38
188
Нет комментариев. Ваш будет первым!