Вы используете незарегистрированную версию компонента "Вкладки"!

Поиск

(Avant-Garde Jazz, Free Improvisation) P.U.R. Collective (PUR) (Krzysztof Knittel, Yuri Yaremchuk, Alexey Kruglov, Maciej Staszewski, Tomek Choloniewski) - Nichi Nichi Kore Ko Nichi - 2015, FLAC (tracks+.cue), lossless

(Avant-Garde Jazz, Free Improvisation) P.U.R. Collective (PUR) (Krzysztof Knittel, Yuri Yaremchuk, Alexey Kruglov, Maciej Staszewski, Tomek Choloniewski) - Nichi Nichi Kore Ko Nichi - 2015, FLAC (tracks+.cue), lossless
Треклист:
P.U.R. Collective / Nichi Nichi Kore Ko Nichi
Жанр: Avant-Garde Jazz, Free Improvisation
Страна-производитель диска (релиза): Poland
Год издания: 2015
Издатель (лейбл): For Tune
Номер по каталогу: 0056(006)
Аудиокодек: FLAC (*.flac)
Тип рипа: tracks+.cue
Битрейт аудио: lossless
Продолжительность: 66:26
Источник (релизер): cd
Наличие сканов в содержимом раздачи: нет
Треклист:
1. Duets 02
2. Extreme 03
3. R 01
4. U 01
5. Five lines
6. Extreme 07
7. Extreme 06
 
Лог создания рипа
Exact Audio Copy V1.0 beta 3 from 29. August 2011
EAC extraction logfile from 3. September 2015, 22:37
P.U.R. Collective / Nichi Nichi Kore Ko Nichi
Used drive : ASUS DRW-24F1ST a Adapter: 0 ID: 0
Read mode : Secure
Utilize accurate stream : Yes
Defeat audio cache : Yes
Make use of C2 pointers : No
Read offset correction : 6
Overread into Lead-In and Lead-Out : No
Fill up missing offset samples with silence : Yes
Delete leading and trailing silent blocks : No
Null samples used in CRC calculations : Yes
Used interface : Native Win32 interface for Win NT & 2000
Gap handling : Appended to previous track
Used output format : User Defined Encoder
Selected bitrate : 320 kBit/s
Quality : High
Add ID3 tag : No
Command line compressor : D:\Programs\Exact Audio Copy\Flac\flac.exe
Additional command line options : -V -8 -T "Genre=%genre%" -T "Artist=%artist%" -T "Title=%title%" -T "Album=%albumtitle%" -T "Date=%year%" -T "Tracknumber=%tracknr%" -T "Comment=%comment%" %source%
TOC of the extracted CD
Track | Start | Length | Start sector | End sector
---------------------------------------------------------
1 | 0:00.00 | 10:58.00 | 0 | 49349
2 | 10:58.00 | 4:07.00 | 49350 | 67874
3 | 15:05.00 | 8:47.00 | 67875 | 107399
4 | 23:52.00 | 13:46.00 | 107400 | 169349
5 | 37:38.00 | 10:55.00 | 169350 | 218474
6 | 48:33.00 | 11:07.00 | 218475 | 268499
7 | 59:40.00 | 6:46.00 | 268500 | 298949
Track 1
Filename D:\EAC\01 Duets 02.wav
Pre-gap length 0:00:02.00
Peak level 97.6 %
Extraction speed 4.8 X
Track quality 99.9 %
Test CRC 826E2F2D
Copy CRC 826E2F2D
Accurately ripped (confidence 1) [65C4BE44] (AR v2)
Copy OK
Track 2
Filename D:\EAC\02 Extreme 03.wav
Peak level 97.5 %
Extraction speed 4.7 X
Track quality 99.9 %
Test CRC 5D057016
Copy CRC 5D057016
Accurately ripped (confidence 1) [1250FDD3] (AR v2)
Copy OK
Track 3
Filename D:\EAC\03 R 01.wav
Peak level 97.6 %
Extraction speed 6.3 X
Track quality 100.0 %
Test CRC 97AFFE88
Copy CRC 97AFFE88
Accurately ripped (confidence 1) [C7787B8A] (AR v2)
Copy OK
Track 4
Filename D:\EAC\04 U 01.wav
Peak level 97.5 %
Extraction speed 7.0 X
Track quality 99.9 %
Test CRC 060EEFE5
Copy CRC 060EEFE5
Accurately ripped (confidence 1) [C3BE9C57] (AR v2)
Copy OK
Track 5
Filename D:\EAC\05 Five Lines.wav
Peak level 97.5 %
Extraction speed 7.6 X
Track quality 99.9 %
Test CRC 088D57F7
Copy CRC 088D57F7
Accurately ripped (confidence 1) [6C954854] (AR v2)
Copy OK
Track 6
Filename D:\EAC\06 Extreme 07.wav
Peak level 97.5 %
Extraction speed 8.3 X
Track quality 99.9 %
Test CRC 3728A8E4
Copy CRC 3728A8E4
Accurately ripped (confidence 1) [9628BB8D] (AR v2)
Copy OK
Track 7
Filename D:\EAC\07 Extreme 06.wav
Peak level 30.1 %
Extraction speed 8.1 X
Track quality 99.9 %
Test CRC 8E0A8FEB
Copy CRC 8E0A8FEB
Accurately ripped (confidence 1) [7C2FEC2E] (AR v2)
Copy OK
All tracks accurately ripped
No errors occurred
End of status report
==== Log checksum 85D1393CB565354DD264AC51216B9366FB79082EEB8B5DAFA996081C9E7CE818 ====
 
Содержание индексной карты (.CUE)
REM GENRE Jazz
REM DATE 2015
REM DISCID 570F9207
REM COMMENT "ExactAudioCopy v1.0b3"
PERFORMER "P.U.R. Collective"
TITLE "Nichi Nichi Kore Ko Nichi"
FILE "01 Duets 02.wav" WAVE
TRACK 01 AUDIO
TITLE "Duets 02"
PERFORMER "P.U.R. Collective"
ISRC PLH161500545
INDEX 01 00:00:00
FILE "02 Extreme 03.wav" WAVE
TRACK 02 AUDIO
TITLE "Extreme 03"
PERFORMER "P.U.R. Collective"
ISRC PLH161500546
INDEX 01 00:00:00
FILE "03 R 01.wav" WAVE
TRACK 03 AUDIO
TITLE "R 01"
PERFORMER "P.U.R. Collective"
ISRC PLH161500547
INDEX 01 00:00:00
FILE "04 U 01.wav" WAVE
TRACK 04 AUDIO
TITLE "U 01"
PERFORMER "P.U.R. Collective"
ISRC PLH161500547
INDEX 01 00:00:00
FILE "05 Five Lines.wav" WAVE
TRACK 05 AUDIO
TITLE "Five Lines"
PERFORMER "P.U.R. Collective"
ISRC PLH161500549
INDEX 01 00:00:00
FILE "06 Extreme 07.wav" WAVE
TRACK 06 AUDIO
TITLE "Extreme 07"
PERFORMER "P.U.R. Collective"
ISRC PLH161500550
INDEX 01 00:00:00
FILE "07 Extreme 06.wav" WAVE
TRACK 07 AUDIO
TITLE "Extreme 06"
PERFORMER "P.U.R. Collective"
ISRC PLH161500581
INDEX 01 00:00:00
Доп. информация: Recorded July 7&8, 2014 at the Genetix Film Factory Studio in Warsaw (Poland)
 
Об альбоме (сборнике)
Music at the junction of jazz and contemporary music. Band led by an outstanding composer and improviser Krzysztof Knittel, featuring prominent saxophone players Alexey Kruglov (Russia) and Yuri Yaremchuka (Ukraine). P.U.R. stands for Poland, Ukraine, and Russia. Top quality avant-garde.
 
Состав
Krzysztof Knittel - electronics
Yuri Yaremchuk - soprano saxophone, bass clarinet
Alexey Kruglov - alto saxophone, basethorn, blockflute, nudi
Maciej Staszewski - guitar
Tomek Choloniewski – drums
По всем вопросам пишите личное сообщение пользователю M0p94ok.
15:38
254
Нет комментариев. Ваш будет первым!