Вы используете незарегистрированную версию компонента "Вкладки"!

Поиск

(Contemporary Jazz, Free Jazz) [CD] Mauro Ottolini & Sousaphonix - The Sky Above Braddock - 2010, FLAC (tracks+.cue), lossless

(Contemporary Jazz, Free Jazz) [CD] Mauro Ottolini & Sousaphonix - The Sky Above Braddock - 2010, FLAC (tracks+.cue), lossless
Треклист:
Mauro Ottolini & Sousaphonix - The Sky Above Braddock
Жанр: Contemporary Jazz, Free Jazz
Носитель: CD
Год издания: 2010
Издатель (лейбл): Cam Jazz
Номер по каталогу: CAMJ 7831-2
Аудиокодек: FLAC (*.flac)
Тип рипа: tracks+.cue
Битрейт аудио: lossless
Продолжительность: 56:16
Источник (релизер): ruskaval
Наличие сканов в содержимом раздачи: да
Треклист:
01. Carnegie's soul in rust's Paradise (3:07)
02. Working Man Blues (4:16)
03. Mayor John 15104 (6:04)
04. Lunar rhapsody (3:14)
05. The wonderful fable of Vicki Vargo (8:36)
06. Pennsylvania 6-5000 (5:10)
07. Crisis program (6:14)
08. Oclupaca (6:39)
09. Strawberry mango (6:08)
10. The funeral of Vocelli Pizza (2:52)
11. Sunrise serenade (3:56)
 
Лог создания рипа
Exact Audio Copy V1.0 beta 3 from 29. August 2011
EAC extraction logfile from 2. May 2014, 18:07
Mauro Ottolini & Sousaphonix / The Sky Above Braddock
Used drive : HL-DT-STDVD-ROM GDR8161B Adapter: 4 ID: 1
Read mode : Secure
Utilize accurate stream : Yes
Defeat audio cache : Yes
Make use of C2 pointers : No
Read offset correction : 102
Overread into Lead-In and Lead-Out : No
Fill up missing offset samples with silence : Yes
Delete leading and trailing silent blocks : No
Null samples used in CRC calculations : Yes
Used interface : Native Win32 interface for Win NT & 2000
Gap handling : Appended to previous track
Used output format : User Defined Encoder
Selected bitrate : 896 kBit/s
Quality : High
Add ID3 tag : No
Command line compressor : C:\Program Files (x86)\Exact Audio Copy\Flac\flac.exe
Additional command line options : -8 -V -T "ARTIST=%artist%" -T "TITLE=%title%" -T "ALBUM=%albumtitle%" -T "DATE=%year%" -T "TRACKNUMBER=%tracknr%" -T "TOTALTRACKS=%numtracks%" -T "GENRE=%genre%" -T "ALBUMARTIST=%albumartist%" -T "ALBUM ARTIST=%albumartist%" -T "COMMENT=EAC Secure Mode, Test & Copy, AccurateRip, FLAC -8" %source%
TOC of the extracted CD
Track | Start | Length | Start sector | End sector
---------------------------------------------------------
1 | 0:00.00 | 3:06.51 | 0 | 14000
2 | 3:06.51 | 4:16.31 | 14001 | 33231
3 | 7:23.07 | 6:04.11 | 33232 | 60542
4 | 13:27.18 | 3:13.44 | 60543 | 75061
5 | 16:40.62 | 8:36.34 | 75062 | 113795
6 | 25:17.21 | 5:10.11 | 113796 | 137056
7 | 30:27.32 | 6:13.38 | 137057 | 165069
8 | 36:40.70 | 6:38.64 | 165070 | 194983
9 | 43:19.59 | 6:08.03 | 194984 | 222586
10 | 49:27.62 | 2:51.45 | 222587 | 235456
11 | 52:19.32 | 3:56.24 | 235457 | 253180
Track 1
Filename C:\Users\pieropicco\Documents\Mauro Ottolini & Sousaphonix\01 - Carnegie's soul in rust's Paradise.wav
Pre-gap length 0:00:02.00
Peak level 82.6 %
Extraction speed 4.7 X
Track quality 100.0 %
Test CRC 3C3AD29C
Copy CRC 3C3AD29C
Accurately ripped (confidence 1) [4914DB87] (AR v2)
Copy OK
Track 2
Filename C:\Users\pieropicco\Documents\Mauro Ottolini & Sousaphonix\02 - Working Man Blues.wav
Peak level 100.0 %
Extraction speed 5.5 X
Track quality 100.0 %
Test CRC E7836DB1
Copy CRC E7836DB1
Accurately ripped (confidence 1) [560774C7] (AR v2)
Copy OK
Track 3
Filename C:\Users\pieropicco\Documents\Mauro Ottolini & Sousaphonix\03 - Mayor John 15104.wav
Pre-gap length 0:00:02.62
Peak level 84.3 %
Extraction speed 6.4 X
Track quality 100.0 %
Test CRC 8F6BD37D
Copy CRC 8F6BD37D
Accurately ripped (confidence 1) [23C20883] (AR v2)
Copy OK
Track 4
Filename C:\Users\pieropicco\Documents\Mauro Ottolini & Sousaphonix\04 - Lunar rhapsody.wav
Pre-gap length 0:00:01.71
Peak level 96.4 %
Extraction speed 6.4 X
Track quality 100.0 %
Test CRC 5E56D7C8
Copy CRC 5E56D7C8
Accurately ripped (confidence 1) [91AE899A] (AR v2)
Copy OK
Track 5
Filename C:\Users\pieropicco\Documents\Mauro Ottolini & Sousaphonix\05 - The wonderful fable of Vicki Vargo.wav
Pre-gap length 0:00:02.00
Peak level 100.0 %
Extraction speed 7.7 X
Track quality 100.0 %
Test CRC A19500A2
Copy CRC A19500A2
Accurately ripped (confidence 1) [9FCE045F] (AR v2)
Copy OK
Track 6
Filename C:\Users\pieropicco\Documents\Mauro Ottolini & Sousaphonix\06 - Pennsylvania 6-5000.wav
Pre-gap length 0:00:02.00
Peak level 99.9 %
Extraction speed 8.1 X
Track quality 100.0 %
Test CRC 32C932F0
Copy CRC 32C932F0
Accurately ripped (confidence 1) [9EDE29F3] (AR v2)
Copy OK
Track 7
Filename C:\Users\pieropicco\Documents\Mauro Ottolini & Sousaphonix\07 - Crisis program.wav
Pre-gap length 0:00:02.00
Peak level 85.9 %
Extraction speed 7.8 X
Track quality 99.9 %
Test CRC 3E6D717C
Copy CRC 3E6D717C
Accurately ripped (confidence 1) [806B685C] (AR v2)
Copy OK
Track 8
Filename C:\Users\pieropicco\Documents\Mauro Ottolini & Sousaphonix\08 - Oclupaca.wav
Pre-gap length 0:00:02.00
Peak level 100.0 %
Extraction speed 9.2 X
Track quality 100.0 %
Test CRC CF539114
Copy CRC CF539114
Accurately ripped (confidence 1) [F713A6CF] (AR v2)
Copy OK
Track 9
Filename C:\Users\pieropicco\Documents\Mauro Ottolini & Sousaphonix\09 - Strawberry mango.wav
Pre-gap length 0:00:02.00
Peak level 99.1 %
Extraction speed 9.7 X
Track quality 100.0 %
Test CRC 99A89A39
Copy CRC 99A89A39
Accurately ripped (confidence 1) [692E848D] (AR v2)
Copy OK
Track 10
Filename C:\Users\pieropicco\Documents\Mauro Ottolini & Sousaphonix\10 - The funeral of Vocelli Pizza.wav
Pre-gap length 0:00:02.00
Peak level 100.0 %
Extraction speed 8.8 X
Track quality 100.0 %
Test CRC 9BD84D85
Copy CRC 9BD84D85
Accurately ripped (confidence 1) [63A649C9] (AR v2)
Copy OK
Track 11
Filename C:\Users\pieropicco\Documents\Mauro Ottolini & Sousaphonix\11 - Sunrise serenade.wav
Pre-gap length 0:00:03.25
Peak level 97.4 %
Extraction speed 9.6 X
Track quality 100.0 %
Test CRC 5AB31D71
Copy CRC 5AB31D71
Accurately ripped (confidence 1) [135E7F5B] (AR v2)
Copy OK
All tracks accurately ripped
No errors occurred
End of status report
==== Log checksum 9FBAA82F7417DD86AE5FBDFDCCA4F8F30E49745053452C9028EC4762B3695D49 ====
 
Содержание индексной карты (.CUE)
REM GENRE Jazz
REM DATE 2010
REM DISCID 8A0D2F0B
REM COMMENT "ExactAudioCopy v1.0b3"
PERFORMER "Mauro Ottolini & Sousaphonix"
TITLE "The Sky Above Braddock"
FILE "01 - Carnegie's soul in rust's Paradise.wav" WAVE
TRACK 01 AUDIO
TITLE "Carnegie's soul in rust's Paradise "
PERFORMER "Mauro Ottolini - Sousaphonix "
FLAGS DCP
INDEX 01 00:00:00
FILE "02 - Working Man Blues.wav" WAVE
TRACK 02 AUDIO
TITLE "Working Man Blues "
PERFORMER "Mauro Ottolini - Sousaphonix "
FLAGS DCP
INDEX 01 00:00:00
TRACK 03 AUDIO
TITLE "Mayor John 15104"
PERFORMER "Mauro Ottolini - Sousaphonix "
FLAGS DCP
INDEX 00 04:13:44
FILE "03 - Mayor John 15104.wav" WAVE
INDEX 01 00:00:00
TRACK 04 AUDIO
TITLE "Lunar rhapsody "
PERFORMER "Mauro Ottolini - Sousaphonix "
FLAGS DCP
INDEX 00 06:02:15
FILE "04 - Lunar rhapsody.wav" WAVE
INDEX 01 00:00:00
TRACK 05 AUDIO
TITLE "The wonderful fable of Vicki Vargo"
PERFORMER "Mauro Ottolini - Sousaphonix "
FLAGS DCP
INDEX 00 03:11:44
FILE "05 - The wonderful fable of Vicki Vargo.wav" WAVE
INDEX 01 00:00:00
TRACK 06 AUDIO
TITLE "Pennsylvania 6-5000 "
PERFORMER "Mauro Ottolini - Sousaphonix "
FLAGS DCP
INDEX 00 08:34:34
FILE "06 - Pennsylvania 6-5000.wav" WAVE
INDEX 01 00:00:00
TRACK 07 AUDIO
TITLE "Crisis program "
PERFORMER "Mauro Ottolini - Sousaphonix "
FLAGS DCP
INDEX 00 05:08:11
FILE "07 - Crisis program.wav" WAVE
INDEX 01 00:00:00
TRACK 08 AUDIO
TITLE "Oclupaca"
PERFORMER "Mauro Ottolini - Sousaphonix "
FLAGS DCP
INDEX 00 06:11:38
FILE "08 - Oclupaca.wav" WAVE
INDEX 01 00:00:00
TRACK 09 AUDIO
TITLE "Strawberry mango "
PERFORMER "Mauro Ottolini - Sousaphonix "
FLAGS DCP
INDEX 00 06:36:64
FILE "09 - Strawberry mango.wav" WAVE
INDEX 01 00:00:00
TRACK 10 AUDIO
TITLE "The funeral of Vocelli Pizza"
PERFORMER "Mauro Ottolini - Sousaphonix "
FLAGS DCP
INDEX 00 06:06:03
FILE "10 - The funeral of Vocelli Pizza.wav" WAVE
INDEX 01 00:00:00
TRACK 11 AUDIO
TITLE "Sunrise serenade"
PERFORMER "Mauro Ottolini - Sousaphonix "
FLAGS DCP
INDEX 00 02:48:20
FILE "11 - Sunrise serenade.wav" WAVE
INDEX 01 00:00:00
 
Состав
Mauro "Otto" Ottolini ( Trombone, Sousaphone, Bass Trumpet, Slide Trumpet )
Dan Kinzelman ( Tenor Sax, Bass Clarinet, Clarinet )
Daniele D'Agaro ( Clarinet, Tenor Sax )
Danilo Gallo ( Electric And Acoustic Bass, Bass Flute )
Enrico Terragnoli ( Electric Guitar, Banjo, Podophone )
Fulvio Sigurtà ( Trumpet, Flugelhorn )
Giorgio Pacorig ( Piano, Fender Rhodes, Electronics )
Giovanni Falzone ( Trumpet )
Piero Bittolo Bon ( Alto & Baritone Sax, Bass Clarinet )
Vincenzo Vasi ( Theremin, Electronics, Vox, Toys )
Zeno De Rossi ( Drums, Percussion )
Antonello Salis ( Accordion, Piano )
По всем вопросам пишите личное сообщение пользователю M0p94ok.
15:42
249
Нет комментариев. Ваш будет первым!