Вы используете незарегистрированную версию компонента "Вкладки"!

Поиск

(Avant-Garde Jazz / Modern Creative) [CD] Hugo Antunes (Daniele Martini, Toine Thys, Joao Lobo, Marek Patrman) - Roll Call - 2010, FLAC (tracks+.cue), lossless

(Avant-Garde Jazz / Modern Creative) [CD] Hugo Antunes (Daniele Martini, Toine Thys, Joao Lobo, Marek Patrman) - Roll Call - 2010, FLAC (tracks+.cue), lossless
Треклист:
Hugo Antunes - Roll Call
Жанр: Avant-Garde Jazz / Modern Creative
Носитель: CD
Страна-производитель диска (релиза): Portugal
Год издания: 2010
Издатель (лейбл): Clean Feed
Номер по каталогу: CF197CD
Аудиокодек: FLAC (*.flac)
Тип рипа: tracks+.cue
Битрейт аудио: lossless
Продолжительность: 00:43:52
Источник (релизер): what.cd / спасибо 6060842
Наличие сканов в содержимом раздачи: нет
Треклист:
1. Dukkha (09:16)
2. Roll Call (09:38)
3. Hoyspenning (06:28)
4. Anfra (06:13)
5. Einfach (06:07)
6. Anfra (Alternate Take) (06:08)
Доп. информация:
Musicians:
Hugo Antunes - double bass
Daniele Martini - tenor saxophone
Toine Thys - tenor saxophone, soprano saxophone, bass clarinet
João Lobo - drums
Marek Patrman - drums
Recorded on September 3rd
Hugo Antunes Official Site
Hugo Antunes from Wikipedia, the free encyclopedia
 
... photo ...
 
... reviews ...
Two Portuguese, a Belgium, an Italian and a Czech: this is a true European combo. Combo? Well, not the conventional one: there are two drummers, João Lobo and Marek Patrman, and two horn players, Daniele Martini and Toine Thys. The band leader, Hugo Antunes, plays the only lone instrument, the double bass, being the axis of everything happening. All the pieces are structures for improvisation, and if Antunes' writing is intended to ignite musical situations, as points of departure, it's also the result of a research work, in order to achieve the idea, and its realization, of "an unique act of creation, of absolute artistic freedom, in which all the participants are, simultaneously, composers and interpreters". There's nothing new in it, but it's also true that the old aspiration to master "real time composition" is a work-in-progress with no end on sight. That's a mission in itself, and these five young improvisers are totally commited to it.
Antunes has already an envyable international career, with the likes of Adam Lane, Michael Attias, Alexandra Samsonova, Jesus Santandreu, Benny Lackner, Robin Verheyen and Alexi Tuomarila, among others, and is involved in projects like Loopless, Velkro and Noi Trio. Lobo plays frequently with Enrico Rava, Alexandra Grimal, Giovanni Guidi, Carlos Bica, Scott Fields and had the opportunity to share experiences with Roswell Rudd, Gianluca Petrella, Julian Arguelles and John Hebert. Daniele Martini had John Abercrombie, Adam Nussbaum and Bert Joris as stage partners and is involved in an afro-beat band with Neco Novellas and Oghene Kologbo, from the legendary Fela Kuti's Afro 70. Thys leads the groups Toine Thys Hammond Trio, Take the Duck and Rackham, and played, for instance, with Ben Monder, Andrew D'Angelo, Chris Cheek and Rick Margitza. Patrman has Erik Vermeulen, John Ruocco and Ben Sluijs as usual companions. They're right in the middle of the new jazz scene, and you're gonna hear (about) them more often. Start now.
~ cleanfeed-records.com
There are albums when you know from the very first minutes that something is "right" : in the fit of the musicians, the approach, the sound, the freedom. This is one of those albums, and one with an unusual line-up at that : with two saxes - Daniele Martini and Toine Thys, two drummers - João Lobo and Marek Patrman, and one forceful bass, played by Portuguese Hugo Antunes.
The first piece is a rhythmic delight of soft-spoken horns engaging deeply in free form, with a solid and subtle bass as the anchorpoint, with both drummers creating a great background of percussive shifting colors. The title track does what it says, a "roll call" of the various musicians, each one presenting himself, as an invitation for the others to welcome by joining the created context, then leaving for the short solo moment to the next instrument, and so on. The result is nice because each musician adds his own touch and approach, basically telling his story in a few notes, with the other musicians completing it together, which gives the piece a suit-like nature.
The third track starts with a long bass intro, setting a steady pulse over which both saxes weave a slow, ethereal and yearning sound."Anfra" is more boppish, "Einfach" more subdued and atmospheric.
I will not review every track, but you get the picture, this beyond bop and post-bop, capturing the complexity, the improvisational power, the freedom and the emotional depth that are so the essence of jazz.
~ freejazzblog.org
 
Лог создания рипа
X Lossless Decoder version 20130127 (142.3)
XLD extraction logfile from 2013-03-20 18:25:45 +0400
Hugo Antunes / Roll Call
Used drive : HL-DT-ST DVDRW GX30N (revision RP09)
Media type : Pressed CD
Ripper mode : XLD Secure Ripper
Disable audio cache : OK for the drive with a cache less than 1375KiB
Make use of C2 pointers : NO
Read offset correction : 6
Max retry count : 20
Gap status : Analyzed, Appended
TOC of the extracted CD
Track | Start | Length | Start sector | End sector
---------------------------------------------------------
1 | 00:00:00 | 09:16:57 | 0 | 41756
2 | 09:16:57 | 09:40:62 | 41757 | 85318
3 | 18:57:44 | 06:29:53 | 85319 | 114546
4 | 25:27:22 | 06:13:14 | 114547 | 142535
5 | 31:40:36 | 06:07:37 | 142536 | 170097
6 | 37:47:73 | 06:08:27 | 170098 | 197724
AccurateRip Summary
Disc not found in AccurateRip DB.
All Tracks
Album gain : -5.99 dB
Peak : 1.000000
Statistics
Read error : 0
Jitter error (maybe fixed) : 0
Retry sector count : 0
Damaged sector count : 0
Track 01
Filename : /Users/anch/Music/FLAC/Hugo Antunes - 2009 - Roll Call [FLAC]/01 - Dukkha.flac
/Users/anch/Music/FLAC/Hugo Antunes - 2009 - Roll Call [MP3 320]/01 - Dukkha.mp3
/Users/anch/Music/FLAC/Hugo Antunes - 2009 - Roll Call [MP3 V0]/01 - Dukkha.mp3
Pre-gap length : 00:02:00
Track gain : -4.63 dB
Peak : 1.000000
CRC32 hash (test run) : B6D32EBB
CRC32 hash : B6D32EBB
CRC32 hash (skip zero) : 90301B45
AccurateRip v1 signature : 8A227AA9
AccurateRip v2 signature : 51D5D009
->Track not present in AccurateRip database.
Statistics
Read error : 0
Jitter error (maybe fixed) : 0
Retry sector count : 0
Damaged sector count : 0
Track 02
Filename : /Users/anch/Music/FLAC/Hugo Antunes - 2009 - Roll Call [FLAC]/02 - Roll Call.flac
/Users/anch/Music/FLAC/Hugo Antunes - 2009 - Roll Call [MP3 320]/02 - Roll Call.mp3
/Users/anch/Music/FLAC/Hugo Antunes - 2009 - Roll Call [MP3 V0]/02 - Roll Call.mp3
Pre-gap length : 00:01:00
Track gain : -6.88 dB
Peak : 1.000000
CRC32 hash (test run) : B7B1EEB2
CRC32 hash : B7B1EEB2
CRC32 hash (skip zero) : BB5F5F64
AccurateRip v1 signature : 220BA7C7
AccurateRip v2 signature : 9683AA5B
->Track not present in AccurateRip database.
Statistics
Read error : 0
Jitter error (maybe fixed) : 0
Retry sector count : 0
Damaged sector count : 0
Track 03
Filename : /Users/anch/Music/FLAC/Hugo Antunes - 2009 - Roll Call [FLAC]/03 - Hoyspenning.flac
/Users/anch/Music/FLAC/Hugo Antunes - 2009 - Roll Call [MP3 320]/03 - Hoyspenning.mp3
/Users/anch/Music/FLAC/Hugo Antunes - 2009 - Roll Call [MP3 V0]/03 - Hoyspenning.mp3
Pre-gap length : 00:02:00
Track gain : -5.42 dB
Peak : 1.000000
CRC32 hash (test run) : A9E53F59
CRC32 hash : A9E53F59
CRC32 hash (skip zero) : 4BFC1D29
AccurateRip v1 signature : 348023DF
AccurateRip v2 signature : DAA76F83
->Track not present in AccurateRip database.
Statistics
Read error : 0
Jitter error (maybe fixed) : 0
Retry sector count : 0
Damaged sector count : 0
Track 04
Filename : /Users/anch/Music/FLAC/Hugo Antunes - 2009 - Roll Call [FLAC]/04 - Anfra.flac
/Users/anch/Music/FLAC/Hugo Antunes - 2009 - Roll Call [MP3 320]/04 - Anfra.mp3
/Users/anch/Music/FLAC/Hugo Antunes - 2009 - Roll Call [MP3 V0]/04 - Anfra.mp3
Pre-gap length : 00:01:00
Track gain : -5.36 dB
Peak : 1.000000
CRC32 hash (test run) : 98EA6C9E
CRC32 hash : 98EA6C9E
CRC32 hash (skip zero) : DE8A525C
AccurateRip v1 signature : 293A1953
AccurateRip v2 signature : F74C63B4
->Track not present in AccurateRip database.
Statistics
Read error : 0
Jitter error (maybe fixed) : 0
Retry sector count : 0
Damaged sector count : 0
Track 05
Filename : /Users/anch/Music/FLAC/Hugo Antunes - 2009 - Roll Call [FLAC]/05 - Einfach.flac
/Users/anch/Music/FLAC/Hugo Antunes - 2009 - Roll Call [MP3 320]/05 - Einfach.mp3
/Users/anch/Music/FLAC/Hugo Antunes - 2009 - Roll Call [MP3 V0]/05 - Einfach.mp3
Track gain : -4.48 dB
Peak : 1.000000
CRC32 hash (test run) : 2EC40784
CRC32 hash : 2EC40784
CRC32 hash (skip zero) : BCFD0015
AccurateRip v1 signature : F5A20BB2
AccurateRip v2 signature : BA7BC2B8
->Track not present in AccurateRip database.
Statistics
Read error : 0
Jitter error (maybe fixed) : 0
Retry sector count : 0
Damaged sector count : 0
Track 06
Filename : /Users/anch/Music/FLAC/Hugo Antunes - 2009 - Roll Call [FLAC]/06 - Anfra (Alternate Take).flac
/Users/anch/Music/FLAC/Hugo Antunes - 2009 - Roll Call [MP3 320]/06 - Anfra (Alternate Take).mp3
/Users/anch/Music/FLAC/Hugo Antunes - 2009 - Roll Call [MP3 V0]/06 - Anfra (Alternate Take).mp3
Track gain : -6.84 dB
Peak : 1.000000
CRC32 hash (test run) : A1A488D3
CRC32 hash : A1A488D3
CRC32 hash (skip zero) : FD838575
AccurateRip v1 signature : F4948ECC
AccurateRip v2 signature : 033B4A3B
->Track not present in AccurateRip database.
Statistics
Read error : 0
Jitter error (maybe fixed) : 0
Retry sector count : 0
Damaged sector count : 0
No errors occurred
End of status report
 
Содержание индексной карты (.CUE)
TITLE "Roll Call"
PERFORMER "Hugo Antunes"
REM GENRE "Free Jazz"
REM DATE "2009"
REM DISCNUMBER 1
REM TOTALDISCS 1
REM DISCID 520A4C06
REM REPLAYGAIN_ALBUM_GAIN -5.99 dB
REM REPLAYGAIN_ALBUM_PEAK 1.000000
FILE "01 - Dukkha.flac" WAVE
TRACK 01 AUDIO
TITLE "Dukkha"
PERFORMER "Hugo Antunes"
REM REPLAYGAIN_TRACK_GAIN -4.63 dB
REM REPLAYGAIN_TRACK_PEAK 1.000000
INDEX 01 00:00:00
TRACK 02 AUDIO
TITLE "Roll Call"
PERFORMER "Hugo Antunes"
REM REPLAYGAIN_TRACK_GAIN -6.88 dB
REM REPLAYGAIN_TRACK_PEAK 1.000000
INDEX 00 09:15:57
FILE "02 - Roll Call.flac" WAVE
INDEX 01 00:00:00
TRACK 03 AUDIO
TITLE "Hoyspenning"
PERFORMER "Hugo Antunes"
REM REPLAYGAIN_TRACK_GAIN -5.42 dB
REM REPLAYGAIN_TRACK_PEAK 1.000000
INDEX 00 09:38:62
FILE "03 - Hoyspenning.flac" WAVE
INDEX 01 00:00:00
TRACK 04 AUDIO
TITLE "Anfra"
PERFORMER "Hugo Antunes"
REM REPLAYGAIN_TRACK_GAIN -5.36 dB
REM REPLAYGAIN_TRACK_PEAK 1.000000
INDEX 00 06:28:53
FILE "04 - Anfra.flac" WAVE
INDEX 01 00:00:00
FILE "05 - Einfach.flac" WAVE
TRACK 05 AUDIO
TITLE "Einfach"
PERFORMER "Hugo Antunes"
REM REPLAYGAIN_TRACK_GAIN -4.48 dB
REM REPLAYGAIN_TRACK_PEAK 1.000000
INDEX 01 00:00:00
FILE "06 - Anfra (Alternate Take).flac" WAVE
TRACK 06 AUDIO
TITLE "Anfra (Alternate Take)"
PERFORMER "Hugo Antunes"
REM REPLAYGAIN_TRACK_GAIN -6.84 dB
REM REPLAYGAIN_TRACK_PEAK 1.000000
INDEX 01 00:00:00
По всем вопросам пишите личное сообщение пользователю M0p94ok.
15:43
206
Нет комментариев. Ваш будет первым!