Вы используете незарегистрированную версию компонента "Вкладки"!

Поиск

(Avant-Garde Jazz) [CD] mi3 (Pandelis Karayorgis, Nate McBride, Curt Newton) - We Will Make a Home for You - 2005, FLAC (tracks+.cue), lossless

(Avant-Garde Jazz) [CD] mi3 (Pandelis Karayorgis, Nate McBride, Curt Newton) - We Will Make a Home for You - 2005, FLAC (tracks+.cue), lossless
Треклист:
mi3 - We Will Make a Home for You
Жанр: Avant-Garde Jazz
Носитель: CD
Страна-производитель диска (релиза): Portugal
Год издания: 2005
Издатель (лейбл): Clean Feed
Номер по каталогу: CF039CD
Аудиокодек: FLAC (*.flac)
Тип рипа: tracks+.cue
Битрейт аудио: lossless
Продолжительность: 01:12:13
Источник (релизер): what.cd / спасибо 6060842
Наличие сканов в содержимом раздачи: да
Треклист:
1. Gazzelloni (Eric Dolphy) (11:53)
2. Ugly Beauty (Thelonious Monk) (07:00)
3. Shuffle Boil (Thelonious Monk) (07:21)
4. 3/4 vs 6/8 4/4 Time (Hasaan Ibn Ali) (08:45)
5. Monk's Point (Thelonious Monk) (11:10)
6. Three Plus Three (Pandelis Karayorgis) (06:31)
7. Centennial (Pandelis Karayorgis) (04:02)
8. Disambiguation (Pandelis Karayorgis) (09:28)
9. We See (Thelonious Monk) (06:22)
Доп. информация:
Musicians:
Pandelis Karayorgis - Fender Rhodes electric piano
Nate McBride - bass
Curt Newton - drums
Tracks #1 and 2: Recorded live at the Abbey Lounge, Somerville, MA, May 26 2002
Tracks #3, 4, 6, 7 and 9: Recorded at Artists at Large Gallery (AAL), Hyde Park, MA, May 11 2003
Track #5: Recorded live at AAL, April 11 2003
Track #8: Recorded after show at AAL, April 11 2003
Pandelis Karayorgis Official Site
Pandelis Karayorgis from Wikipedia, the free encyclopedia
 
... back ...
 
... photo ...


 
Лог создания рипа
X Lossless Decoder version 20130127 (142.3)
XLD extraction logfile from 2013-01-28 03:22:42 +0400
mi3 / We Will Make a Home for You
Used drive : HL-DT-ST DVDRW GX30N (revision RP09)
Media type : Pressed CD
Ripper mode : XLD Secure Ripper
Disable audio cache : OK for the drive with a cache less than 1375KiB
Make use of C2 pointers : NO
Read offset correction : 6
Max retry count : 20
Gap status : Analyzed, Appended
TOC of the extracted CD
Track | Start | Length | Start sector | End sector
---------------------------------------------------------
1 | 00:00:00 | 11:54:67 | 0 | 53616
2 | 11:54:67 | 07:00:38 | 53617 | 85154
3 | 18:55:30 | 07:22:50 | 85155 | 118354
4 | 26:18:05 | 08:44:64 | 118355 | 157718
5 | 35:02:69 | 11:11:07 | 157719 | 208050
6 | 46:14:01 | 06:26:31 | 208051 | 237031
7 | 52:40:32 | 04:00:50 | 237032 | 255081
8 | 56:41:07 | 09:27:53 | 255082 | 297659
9 | 66:08:60 | 06:20:64 | 297660 | 326223
AccurateRip Summary
Disc not found in AccurateRip DB.
All Tracks
Album gain : -3.13 dB
Peak : 1.000000
Statistics
Read error : 0
Jitter error (maybe fixed) : 0
Retry sector count : 0
Damaged sector count : 0
Track 01
Filename : /Users/anch/Music/FLAC/mi3 - 2005 - We Will Make a Home for You [FLAC]/01 - Gazzelloni.flac
/Users/anch/Music/FLAC/mi3 - 2005 - We Will Make a Home for You [MP3 320]/01 - Gazzelloni.mp3
/Users/anch/Music/FLAC/mi3 - 2005 - We Will Make a Home for You [MP3 V0]/01 - Gazzelloni.mp3
Pre-gap length : 00:02:00
Track gain : -3.02 dB
Peak : 0.999969
CRC32 hash (test run) : 4347AE82
CRC32 hash : 4347AE82
CRC32 hash (skip zero) : EB103606
AccurateRip v1 signature : 08DE527F
AccurateRip v2 signature : 140CC049
->Track not present in AccurateRip database.
Statistics
Read error : 0
Jitter error (maybe fixed) : 0
Retry sector count : 0
Damaged sector count : 0
Track 02
Filename : /Users/anch/Music/FLAC/mi3 - 2005 - We Will Make a Home for You [FLAC]/02 - Ugly Beauty.flac
/Users/anch/Music/FLAC/mi3 - 2005 - We Will Make a Home for You [MP3 320]/02 - Ugly Beauty.mp3
/Users/anch/Music/FLAC/mi3 - 2005 - We Will Make a Home for You [MP3 V0]/02 - Ugly Beauty.mp3
Pre-gap length : 00:02:00
Track gain : 1.63 dB
Peak : 0.723114
CRC32 hash (test run) : FD0F4066
CRC32 hash : FD0F4066
CRC32 hash (skip zero) : AA7C81B8
AccurateRip v1 signature : E0182039
AccurateRip v2 signature : 47CC8C45
->Track not present in AccurateRip database.
Statistics
Read error : 0
Jitter error (maybe fixed) : 0
Retry sector count : 0
Damaged sector count : 0
Track 03
Filename : /Users/anch/Music/FLAC/mi3 - 2005 - We Will Make a Home for You [FLAC]/03 - Shuffle Boil.flac
/Users/anch/Music/FLAC/mi3 - 2005 - We Will Make a Home for You [MP3 320]/03 - Shuffle Boil.mp3
/Users/anch/Music/FLAC/mi3 - 2005 - We Will Make a Home for You [MP3 V0]/03 - Shuffle Boil.mp3
Pre-gap length : 00:02:00
Track gain : -1.63 dB
Peak : 0.997345
CRC32 hash (test run) : 71B4E7D5
CRC32 hash : 71B4E7D5
CRC32 hash (skip zero) : 63BF177E
AccurateRip v1 signature : 8877708D
AccurateRip v2 signature : 3447DF17
->Track not present in AccurateRip database.
Statistics
Read error : 0
Jitter error (maybe fixed) : 0
Retry sector count : 0
Damaged sector count : 0
Track 04
Filename : /Users/anch/Music/FLAC/mi3 - 2005 - We Will Make a Home for You [FLAC]/04 - 3/4 vs. 6/8 4/4 Time.flac
/Users/anch/Music/FLAC/mi3 - 2005 - We Will Make a Home for You [MP3 320]/04 - 3/4 vs. 6/8 4/4 Time.mp3
/Users/anch/Music/FLAC/mi3 - 2005 - We Will Make a Home for You [MP3 V0]/04 - 3/4 vs. 6/8 4/4 Time.mp3
Pre-gap length : 00:02:00
Track gain : -3.31 dB
Peak : 0.999969
CRC32 hash (test run) : E0634EF0
CRC32 hash : E0634EF0
CRC32 hash (skip zero) : 9F0D1D34
AccurateRip v1 signature : 40A920C8
AccurateRip v2 signature : AD91B98B
->Track not present in AccurateRip database.
Statistics
Read error : 0
Jitter error (maybe fixed) : 0
Retry sector count : 0
Damaged sector count : 0
Track 05
Filename : /Users/anch/Music/FLAC/mi3 - 2005 - We Will Make a Home for You [FLAC]/05 - Monk's Point.flac
/Users/anch/Music/FLAC/mi3 - 2005 - We Will Make a Home for You [MP3 320]/05 - Monk's Point.mp3
/Users/anch/Music/FLAC/mi3 - 2005 - We Will Make a Home for You [MP3 V0]/05 - Monk's Point.mp3
Pre-gap length : 00:02:00
Track gain : -4.21 dB
Peak : 1.000000
CRC32 hash (test run) : ED7C5244
CRC32 hash : ED7C5244
CRC32 hash (skip zero) : 6ED892AE
AccurateRip v1 signature : 922B41AF
AccurateRip v2 signature : CFD1B43E
->Track not present in AccurateRip database.
Statistics
Read error : 0
Jitter error (maybe fixed) : 0
Retry sector count : 0
Damaged sector count : 0
Track 06
Filename : /Users/anch/Music/FLAC/mi3 - 2005 - We Will Make a Home for You [FLAC]/06 - Three Plus Three.flac
/Users/anch/Music/FLAC/mi3 - 2005 - We Will Make a Home for You [MP3 320]/06 - Three Plus Three.mp3
/Users/anch/Music/FLAC/mi3 - 2005 - We Will Make a Home for You [MP3 V0]/06 - Three Plus Three.mp3
Pre-gap length : 00:02:00
Track gain : -4.10 dB
Peak : 0.997955
CRC32 hash (test run) : 43A5E194
CRC32 hash : 43A5E194
CRC32 hash (skip zero) : 791D8B75
AccurateRip v1 signature : 50482A3A
AccurateRip v2 signature : E0D3BA9B
->Track not present in AccurateRip database.
Statistics
Read error : 0
Jitter error (maybe fixed) : 0
Retry sector count : 0
Damaged sector count : 0
Track 07
Filename : /Users/anch/Music/FLAC/mi3 - 2005 - We Will Make a Home for You [FLAC]/07 - Centennial.flac
/Users/anch/Music/FLAC/mi3 - 2005 - We Will Make a Home for You [MP3 320]/07 - Centennial.mp3
/Users/anch/Music/FLAC/mi3 - 2005 - We Will Make a Home for You [MP3 V0]/07 - Centennial.mp3
Pre-gap length : 00:02:00
Track gain : 0.67 dB
Peak : 0.895721
CRC32 hash (test run) : 3A1B009E
CRC32 hash : 3A1B009E
CRC32 hash (skip zero) : 5C49784D
AccurateRip v1 signature : F0A3FF05
AccurateRip v2 signature : F6C1CE62
->Track not present in AccurateRip database.
Statistics
Read error : 0
Jitter error (maybe fixed) : 0
Retry sector count : 0
Damaged sector count : 0
Track 08
Filename : /Users/anch/Music/FLAC/mi3 - 2005 - We Will Make a Home for You [FLAC]/08 - Disambiguation.flac
/Users/anch/Music/FLAC/mi3 - 2005 - We Will Make a Home for You [MP3 320]/08 - Disambiguation.mp3
/Users/anch/Music/FLAC/mi3 - 2005 - We Will Make a Home for You [MP3 V0]/08 - Disambiguation.mp3
Pre-gap length : 00:02:00
Track gain : -5.12 dB
Peak : 1.000000
CRC32 hash (test run) : B690DEA6
CRC32 hash : B690DEA6
CRC32 hash (skip zero) : 64650A1F
AccurateRip v1 signature : 2E859AFF
AccurateRip v2 signature : F0D52876
->Track not present in AccurateRip database.
Statistics
Read error : 0
Jitter error (maybe fixed) : 0
Retry sector count : 0
Damaged sector count : 0
Track 09
Filename : /Users/anch/Music/FLAC/mi3 - 2005 - We Will Make a Home for You [FLAC]/09 - We See.flac
/Users/anch/Music/FLAC/mi3 - 2005 - We Will Make a Home for You [MP3 320]/09 - We See.mp3
/Users/anch/Music/FLAC/mi3 - 2005 - We Will Make a Home for You [MP3 V0]/09 - We See.mp3
Pre-gap length : 00:02:00
Track gain : -0.81 dB
Peak : 0.995544
CRC32 hash (test run) : 8B684567
CRC32 hash : 8B684567
CRC32 hash (skip zero) : 6DBCDDC4
AccurateRip v1 signature : AD552390
AccurateRip v2 signature : B628508F
->Track not present in AccurateRip database.
Statistics
Read error : 0
Jitter error (maybe fixed) : 0
Retry sector count : 0
Damaged sector count : 0
No errors occurred
End of status report
 
Содержание индексной карты (.CUE)
TITLE "We Will Make a Home for You"
PERFORMER "mi3"
REM GENRE "Free Jazz"
REM DATE "2005"
REM DISCID 7010FD09
REM REPLAYGAIN_ALBUM_GAIN -3.13 dB
REM REPLAYGAIN_ALBUM_PEAK 1.000000
FILE "01 - Gazzelloni.flac" WAVE
TRACK 01 AUDIO
TITLE "Gazzelloni"
PERFORMER "mi3"
REM REPLAYGAIN_TRACK_GAIN -3.02 dB
REM REPLAYGAIN_TRACK_PEAK 0.999969
INDEX 01 00:00:00
TRACK 02 AUDIO
TITLE "Ugly Beauty"
PERFORMER "mi3"
REM REPLAYGAIN_TRACK_GAIN 1.63 dB
REM REPLAYGAIN_TRACK_PEAK 0.723114
INDEX 00 11:52:67
FILE "02 - Ugly Beauty.flac" WAVE
INDEX 01 00:00:00
TRACK 03 AUDIO
TITLE "Shuffle Boil"
PERFORMER "mi3"
REM REPLAYGAIN_TRACK_GAIN -1.63 dB
REM REPLAYGAIN_TRACK_PEAK 0.997345
INDEX 00 06:58:38
FILE "03 - Shuffle Boil.flac" WAVE
INDEX 01 00:00:00
TRACK 04 AUDIO
TITLE "3/4 vs. 6/8 4/4 Time"
PERFORMER "mi3"
REM REPLAYGAIN_TRACK_GAIN -3.31 dB
REM REPLAYGAIN_TRACK_PEAK 0.999969
INDEX 00 07:20:50
FILE "04 - 3 by 4 vs. 6 by 8 4 by 4 Time.flac" WAVE
INDEX 01 00:00:00
TRACK 05 AUDIO
TITLE "Monk's Point"
PERFORMER "mi3"
REM REPLAYGAIN_TRACK_GAIN -4.21 dB
REM REPLAYGAIN_TRACK_PEAK 1.000000
INDEX 00 08:42:64
FILE "05 - Monk's Point.flac" WAVE
INDEX 01 00:00:00
TRACK 06 AUDIO
TITLE "Three Plus Three"
PERFORMER "mi3"
REM REPLAYGAIN_TRACK_GAIN -4.10 dB
REM REPLAYGAIN_TRACK_PEAK 0.997955
INDEX 00 11:09:07
FILE "06 - Three Plus Three.flac" WAVE
INDEX 01 00:00:00
TRACK 07 AUDIO
TITLE "Centennial"
PERFORMER "mi3"
REM REPLAYGAIN_TRACK_GAIN 0.67 dB
REM REPLAYGAIN_TRACK_PEAK 0.895721
INDEX 00 06:24:31
FILE "07 - Centennial.flac" WAVE
INDEX 01 00:00:00
TRACK 08 AUDIO
TITLE "Disambiguation"
PERFORMER "mi3"
REM REPLAYGAIN_TRACK_GAIN -5.12 dB
REM REPLAYGAIN_TRACK_PEAK 1.000000
INDEX 00 03:58:50
FILE "08 - Disambiguation.flac" WAVE
INDEX 01 00:00:00
TRACK 09 AUDIO
TITLE "We See"
PERFORMER "mi3"
REM REPLAYGAIN_TRACK_GAIN -0.81 dB
REM REPLAYGAIN_TRACK_PEAK 0.995544
INDEX 00 09:25:53
FILE "09 - We See.flac" WAVE
INDEX 01 00:00:00
По всем вопросам пишите личное сообщение пользователю M0p94ok.
15:44
208
Нет комментариев. Ваш будет первым!