Вы используете незарегистрированную версию компонента "Вкладки"!

Поиск

(Free Jazz) Cecil Taylor - The Complete Remastered Recordings on Black Saint & Soul Note (Winged Serpent, Historic Concerts, Olu Iwa, For Olim) (Segments II (Orchestra of two Continents), Max Roach) (5cd) - 2011, FLAC (tracks+.cue), lossless

(Free Jazz) Cecil Taylor - The Complete Remastered Recordings on Black Saint & Soul Note (Winged Serpent, Historic Concerts, Olu Iwa, For Olim) (Segments II (Orchestra of two Continents), Max Roach) (5cd) - 2011, FLAC (tracks+.cue), lossless
Издатель (лейбл):
Треклист:
Cecil Taylor / The Complete Remastered Recordings on Black Saint & Soul Note
Жанр: Free Jazz
Страна-производитель диска: Италия
Год издания диска: 2011
Издатель (лейбл): CAM Jazz
Номер по каталогу: BXS 1007
Страна: США
Аудиокодек: FLAC (*.flac)
Тип рипа: tracks+.cue
Битрейт аудио: lossless
Продолжительность: 4:30:05
Источник (релизер): вот.сиди (beatledennis)
Наличие сканов в содержимом раздачи: нет
 
cd 1 Cecil Taylor Segments II (Orchestra of two Continents) - Winged Serpent (Sliding Quadrants)
Треклист:
1 Taht 8:50
2 Womb Waters Scent Of The Burning Armadillo Shell 13:04
3 Cun-Un-Un-Un-An 7:10
4 Winged Serpent 13:54
Recorded October 22, 23 and 24, 1984 at Studio 7, Milano
 
Лог создания рипа
X Lossless Decoder version 20120120 (139.0)
XLD extraction logfile from 2012-01-28 09:49:17 +0200
Cecil Taylor Segments II / Winged Serpent (Sliding Quadrants)
Used drive : MATSHITA DVD-R UJ-898 (revision HC10)
Ripper mode : CDParanoia III 10.2
Disable audio cache : OK for the drive with a cache less than 2750KiB
Make use of C2 pointers : NO
Read offset correction : 102
Max retry count : 100
Gap status : Analyzed, Appended
TOC of the extracted CD
Track | Start | Length | Start sector | End sector
---------------------------------------------------------
1 | 00:00:00 | 08:55:53 | 0 | 40177
2 | 08:55:53 | 13:09:42 | 40178 | 99394
3 | 22:05:20 | 07:11:01 | 99395 | 131720
4 | 29:16:21 | 13:57:54 | 131721 | 194549
AccurateRip Summary
Track 01 : OK (confidence 2)
Track 02 : OK (confidence 2)
Track 03 : OK (confidence 2)
Track 04 : OK (confidence 2)
->All tracks accurately ripped.
All Tracks
Album gain : -3.42 dB
Peak : 0.952850
Statistics
Read error : 0
Skipped (treated as error) : 0
Edge jitter error (maybe fixed) : 0
Atom jitter error (maybe fixed) : 0
Drift error (maybe fixed) : 0
Dropped bytes error (maybe fixed) : 0
Duplicated bytes error (maybe fixed) : 0
Track 01
Filename : /Volumes/Think Jazz/Cecil Taylor - 2011 - The Complete Remastered Recordings on Black Saint & Soul Note - FLAC/Disc 1 - Winged Serpent (Sliding Quadrants)/01 - Taht.flac
Pre-gap length : 00:02:00
Track gain : -2.58 dB
Peak : 0.947632
CRC32 hash (test run) : 3E2B1CB5
CRC32 hash : 3E2B1CB5
CRC32 hash (skip zero) : 39CFF9C0
AccurateRip signature : 936626AA
->Accurately ripped! (confidence 2)
Statistics
Read error : 0
Skipped (treated as error) : 0
Edge jitter error (maybe fixed) : 0
Atom jitter error (maybe fixed) : 0
Drift error (maybe fixed) : 0
Dropped bytes error (maybe fixed) : 0
Duplicated bytes error (maybe fixed) : 0
Inconsistency in error sectors : 0
Track 02
Filename : /Volumes/Think Jazz/Cecil Taylor - 2011 - The Complete Remastered Recordings on Black Saint & Soul Note - FLAC/Disc 1 - Winged Serpent (Sliding Quadrants)/02 - Womb Waters Scent Of The Burning Armadillo Shell.flac
Pre-gap length : 00:03:65
Track gain : -3.74 dB
Peak : 0.952850
CRC32 hash (test run) : B8DB351C
CRC32 hash : B8DB351C
CRC32 hash (skip zero) : 878A4E63
AccurateRip signature : 73AA0B27
->Accurately ripped! (confidence 2)
Statistics
Read error : 0
Skipped (treated as error) : 0
Edge jitter error (maybe fixed) : 0
Atom jitter error (maybe fixed) : 0
Drift error (maybe fixed) : 0
Dropped bytes error (maybe fixed) : 0
Duplicated bytes error (maybe fixed) : 0
Inconsistency in error sectors : 0
Track 03
Filename : /Volumes/Think Jazz/Cecil Taylor - 2011 - The Complete Remastered Recordings on Black Saint & Soul Note - FLAC/Disc 1 - Winged Serpent (Sliding Quadrants)/03 - Cun-Un-Un-Un-An.flac
Pre-gap length : 00:03:13
Track gain : -3.15 dB
Peak : 0.952850
CRC32 hash (test run) : A5C2160F
CRC32 hash : A5C2160F
CRC32 hash (skip zero) : 1BA2510C
AccurateRip signature : A334B3CB
->Accurately ripped! (confidence 2)
Statistics
Read error : 0
Skipped (treated as error) : 0
Edge jitter error (maybe fixed) : 0
Atom jitter error (maybe fixed) : 0
Drift error (maybe fixed) : 0
Dropped bytes error (maybe fixed) : 0
Duplicated bytes error (maybe fixed) : 0
Inconsistency in error sectors : 0
Track 04
Filename : /Volumes/Think Jazz/Cecil Taylor - 2011 - The Complete Remastered Recordings on Black Saint & Soul Note - FLAC/Disc 1 - Winged Serpent (Sliding Quadrants)/04 - Winged Serpent.flac
Pre-gap length : 00:02:52
Track gain : -3.51 dB
Peak : 0.952850
CRC32 hash (test run) : 4D0E65FC
CRC32 hash : 4D0E65FC
CRC32 hash (skip zero) : 6B05E83B
AccurateRip signature : 428824C7
->Accurately ripped! (confidence 2)
Statistics
Read error : 0
Skipped (treated as error) : 0
Edge jitter error (maybe fixed) : 0
Atom jitter error (maybe fixed) : 0
Drift error (maybe fixed) : 0
Dropped bytes error (maybe fixed) : 0
Duplicated bytes error (maybe fixed) : 0
Inconsistency in error sectors : 0
No errors occurred
End of status report
 
Содержание индексной карты (.CUE)
TITLE "Winged Serpent (Sliding Quadrants)"
PERFORMER "Cecil Taylor Segments II"
REM DISCID 330A2204
FILE "01 - Taht.wav" WAVE
TRACK 01 AUDIO
TITLE "Taht"
ISRC ITC001056632
FLAGS DCP
INDEX 01 00:00:00
TRACK 02 AUDIO
TITLE "Womb Waters Scent Of The Burning Armadillo Shell"
ISRC ITC001056633
FLAGS DCP
INDEX 00 08:51:63
FILE "02 - Womb Waters Scent Of The Burning Armadillo Shell.wav" WAVE
INDEX 01 00:00:00
TRACK 03 AUDIO
TITLE "Cun-Un-Un-Un-An"
ISRC ITC001056634
FLAGS DCP
INDEX 00 13:06:29
FILE "03 - Cun-Un-Un-Un-An.wav" WAVE
INDEX 01 00:00:00
TRACK 04 AUDIO
TITLE "Winged Serpent"
ISRC ITC001056635
FLAGS DCP
INDEX 00 07:08:24
FILE "04 - Winged Serpent.wav" WAVE
INDEX 01 00:00:00
 
Лог проверки качества
AUDIOCHECKER v2.0 beta (build 457) - by Dester - opdester@freemail.hu
~~~~~~~~~~~~~~~~~~~~~~~~~~~~~~~~~~
-=== DO NOT EDIT THIS FILE! ===-
Path: ...\Disc 1 - Winged Serpent (Sliding Quadrants)
01 -=- 01 - Taht.flac -=- CDDA (100%)
02 -=- 02 - Womb Waters Scent Of The Burning Armadillo Shell.flac -=- MPEG (73%)
03 -=- 03 - Cun-Un-Un-Un-An.flac -=- CDDA (100%)
04 -=- 04 - Winged Serpent.flac -=- MPEG (79%)
Summary 62,00% CDDA
130180788
 
Скриншот спектра частот
 
Состав
Cecil Taylor piano, voice
Jimmy Lyons alto saxophone, voice
Günter Hampel baritone saxophone, bass clarinet, voice
William Parker bass, voice
Karen Borca bassoon, voice
Andre Martinez drums, percussion, voice
Rashied Bakr drums, voice
John Tchicai tenor saxophone, bass clarinet, voice
Frank Wright tenor saxophone, voice
Enrico Rava, Tomasz Stańko trumpet, voice
не ремастер
 
cd 2 & 3 Max Roach And Cecil Taylor – Historic Concerts
Треклист:
cd2
1 Presentation 1:06
2 Drums Solo 5:02
3 Piano Solo 5:04
4 Duets - Part I 40:04
cd3
1 Duets - Part II 38:32
2 Interviews Part I 9:36
3 Interviews Part II 7:14
Recorded at Mc Millin Theatre Columbia U., New York, December 15, 1979
 
Лог создания рипа
X Lossless Decoder version 20120120 (139.0)
XLD extraction logfile from 2012-01-28 10:08:17 +0200
Max Roach and Cecil Taylor / Historic Concerts
Used drive : MATSHITA DVD-R UJ-898 (revision HC10)
Ripper mode : CDParanoia III 10.2
Disable audio cache : OK for the drive with a cache less than 2750KiB
Make use of C2 pointers : NO
Read offset correction : 102
Max retry count : 100
Gap status : Analyzed, Appended
TOC of the extracted CD
Track | Start | Length | Start sector | End sector
---------------------------------------------------------
1 | 00:00:00 | 01:05:36 | 0 | 4910
2 | 01:05:36 | 05:01:00 | 4911 | 27485
3 | 06:06:36 | 05:05:43 | 27486 | 50403
4 | 11:12:04 | 40:03:13 | 50404 | 230641
AccurateRip Summary
Track 01 : OK (confidence 2)
Track 02 : OK (confidence 2)
Track 03 : OK (confidence 2)
Track 04 : OK (confidence 2)
->All tracks accurately ripped.
All Tracks
Album gain : -1.37 dB
Peak : 0.952942
Statistics
Read error : 0
Skipped (treated as error) : 0
Edge jitter error (maybe fixed) : 0
Atom jitter error (maybe fixed) : 0
Drift error (maybe fixed) : 0
Dropped bytes error (maybe fixed) : 0
Duplicated bytes error (maybe fixed) : 0
Track 01
Filename : /Volumes/Think Jazz/Cecil Taylor - 2011 - The Complete Remastered Recordings on Black Saint & Soul Note - FLAC/Disc 2 - Historic Concerts - Set 1/01 - Presentation.flac
Pre-gap length : 00:02:00
Track gain : 0.89 dB
Peak : 0.893677
CRC32 hash (test run) : F38D4DB6
CRC32 hash : F38D4DB6
CRC32 hash (skip zero) : 27E2F87F
AccurateRip signature : BC0136FD
->Accurately ripped! (confidence 2)
Statistics
Read error : 0
Skipped (treated as error) : 0
Edge jitter error (maybe fixed) : 0
Atom jitter error (maybe fixed) : 0
Drift error (maybe fixed) : 0
Dropped bytes error (maybe fixed) : 0
Duplicated bytes error (maybe fixed) : 0
Inconsistency in error sectors : 0
Track 02
Filename : /Volumes/Think Jazz/Cecil Taylor - 2011 - The Complete Remastered Recordings on Black Saint & Soul Note - FLAC/Disc 2 - Historic Concerts - Set 1/02 - Drums Solo.flac
Track gain : 0.53 dB
Peak : 0.952942
CRC32 hash (test run) : A50978FA
CRC32 hash : A50978FA
CRC32 hash (skip zero) : C69DC31C
AccurateRip signature : FFDA4BA6
->Accurately ripped! (confidence 2)
Statistics
Read error : 0
Skipped (treated as error) : 0
Edge jitter error (maybe fixed) : 0
Atom jitter error (maybe fixed) : 0
Drift error (maybe fixed) : 0
Dropped bytes error (maybe fixed) : 0
Duplicated bytes error (maybe fixed) : 0
Inconsistency in error sectors : 0
Track 03
Filename : /Volumes/Think Jazz/Cecil Taylor - 2011 - The Complete Remastered Recordings on Black Saint & Soul Note - FLAC/Disc 2 - Historic Concerts - Set 1/03 - Piano Solo.flac
Track gain : 0.99 dB
Peak : 0.861755
CRC32 hash (test run) : 246F6408
CRC32 hash : 246F6408
CRC32 hash (skip zero) : B292ABA8
AccurateRip signature : 192024F7
->Accurately ripped! (confidence 2)
Statistics
Read error : 0
Skipped (treated as error) : 0
Edge jitter error (maybe fixed) : 0
Atom jitter error (maybe fixed) : 0
Drift error (maybe fixed) : 0
Dropped bytes error (maybe fixed) : 0
Duplicated bytes error (maybe fixed) : 0
Inconsistency in error sectors : 0
Track 04
Filename : /Volumes/Think Jazz/Cecil Taylor - 2011 - The Complete Remastered Recordings on Black Saint & Soul Note - FLAC/Disc 2 - Historic Concerts - Set 1/04 - Duets - Part 1.flac
Track gain : -1.57 dB
Peak : 0.952881
CRC32 hash (test run) : 001E3D84
CRC32 hash : 001E3D84
CRC32 hash (skip zero) : 61D7B4BA
AccurateRip signature : 45EB93A4
->Accurately ripped! (confidence 2)
Statistics
Read error : 0
Skipped (treated as error) : 0
Edge jitter error (maybe fixed) : 0
Atom jitter error (maybe fixed) : 0
Drift error (maybe fixed) : 0
Dropped bytes error (maybe fixed) : 0
Duplicated bytes error (maybe fixed) : 0
Inconsistency in error sectors : 0
No errors occurred
End of status report


X Lossless Decoder version 20120120 (139.0)
XLD extraction logfile from 2012-01-28 10:27:59 +0200
Max Roach & Cecil Taylor / Historic Concerts (CD 2)
Used drive : MATSHITA DVD-R UJ-898 (revision HC10)
Ripper mode : CDParanoia III 10.2
Disable audio cache : OK for the drive with a cache less than 2750KiB
Make use of C2 pointers : NO
Read offset correction : 102
Max retry count : 100
Gap status : Analyzed, Appended
TOC of the extracted CD
Track | Start | Length | Start sector | End sector
---------------------------------------------------------
1 | 00:00:00 | 38:30:56 | 0 | 173305
2 | 38:30:56 | 09:35:58 | 173306 | 216488
3 | 48:06:39 | 07:13:23 | 216489 | 248986
AccurateRip Summary
Track 01 : OK (confidence 2)
Track 02 : OK (confidence 2)
Track 03 : OK (confidence 2)
->All tracks accurately ripped.
All Tracks
Album gain : -2.28 dB
Peak : 0.952911
Statistics
Read error : 0
Skipped (treated as error) : 0
Edge jitter error (maybe fixed) : 0
Atom jitter error (maybe fixed) : 0
Drift error (maybe fixed) : 0
Dropped bytes error (maybe fixed) : 0
Duplicated bytes error (maybe fixed) : 0
Track 01
Filename : /Volumes/Think Jazz/Cecil Taylor - 2011 - The Complete Remastered Recordings on Black Saint & Soul Note - FLAC/Disc 3 - Historic Concerts - Set 2/01 - Duets - Part 1.flac
Pre-gap length : 00:02:00
Track gain : -2.40 dB
Peak : 0.952911
CRC32 hash (test run) : 997839A6
CRC32 hash : 997839A6
CRC32 hash (skip zero) : 5C92F900
AccurateRip signature : 77598A67
->Accurately ripped! (confidence 2)
Statistics
Read error : 0
Skipped (treated as error) : 0
Edge jitter error (maybe fixed) : 0
Atom jitter error (maybe fixed) : 0
Drift error (maybe fixed) : 0
Dropped bytes error (maybe fixed) : 0
Duplicated bytes error (maybe fixed) : 0
Inconsistency in error sectors : 0
Track 02
Filename : /Volumes/Think Jazz/Cecil Taylor - 2011 - The Complete Remastered Recordings on Black Saint & Soul Note - FLAC/Disc 3 - Historic Concerts - Set 2/02 - Interviews - Part 1.flac
Pre-gap length : 00:06:20
Track gain : -2.72 dB
Peak : 0.952881
CRC32 hash (test run) : A78E697E
CRC32 hash : A78E697E
CRC32 hash (skip zero) : 4A4A5A72
AccurateRip signature : 660ECDA3
->Accurately ripped! (confidence 2)
Statistics
Read error : 0
Skipped (treated as error) : 0
Edge jitter error (maybe fixed) : 0
Atom jitter error (maybe fixed) : 0
Drift error (maybe fixed) : 0
Dropped bytes error (maybe fixed) : 0
Duplicated bytes error (maybe fixed) : 0
Inconsistency in error sectors : 0
Track 03
Filename : /Volumes/Think Jazz/Cecil Taylor - 2011 - The Complete Remastered Recordings on Black Saint & Soul Note - FLAC/Disc 3 - Historic Concerts - Set 2/03 - Interviews - Part 2.flac
Pre-gap length : 00:05:10
Track gain : 1.70 dB
Peak : 0.747894
CRC32 hash (test run) : D97E8D97
CRC32 hash : D97E8D97
CRC32 hash (skip zero) : 3175A722
AccurateRip signature : FB821E4A
->Accurately ripped! (confidence 2)
Statistics
Read error : 0
Skipped (treated as error) : 0
Edge jitter error (maybe fixed) : 0
Atom jitter error (maybe fixed) : 0
Drift error (maybe fixed) : 0
Dropped bytes error (maybe fixed) : 0
Duplicated bytes error (maybe fixed) : 0
Inconsistency in error sectors : 0
No errors occurred
End of status report
 
Содержание индексной карты (.CUE)
TITLE "Historic Concerts"
PERFORMER "Max Roach and Cecil Taylor"
REM GENRE "Jazz"
REM DATE "1979"
REM DISCID 310C0304
FILE "01 - Presentation.wav" WAVE
TRACK 01 AUDIO
TITLE "Presentation"
ISRC ITC001056636
FLAGS DCP
INDEX 01 00:00:00
FILE "02 - Drums Solo.wav" WAVE
TRACK 02 AUDIO
TITLE "Drums Solo"
ISRC ITC001056637
FLAGS DCP
INDEX 01 00:00:00
FILE "03 - Piano Solo.wav" WAVE
TRACK 03 AUDIO
TITLE "Piano Solo"
ISRC ITC001056638
FLAGS DCP
INDEX 01 00:00:00
FILE "04 - Duets - Part 1.wav" WAVE
TRACK 04 AUDIO
TITLE "Duets - Part 1"
ISRC ITC001056639
FLAGS DCP
INDEX 01 00:00:00


TITLE "Historic Concerts (CD 2)"
PERFORMER "Max Roach & Cecil Taylor"
REM GENRE "Duo Jazz"
REM DATE "1979"
REM DISCID 240CF703
FILE "01 - Duets - Part 1.wav" WAVE
TRACK 01 AUDIO
TITLE "Duets - Part 1"
ISRC ITC001056640
FLAGS DCP
INDEX 01 00:00:00
TRACK 02 AUDIO
TITLE "Interviews - Part 1"
ISRC ITC001056641
FLAGS DCP
INDEX 00 38:24:36
FILE "02 - Interviews - Part 1.wav" WAVE
INDEX 01 00:00:00
TRACK 03 AUDIO
TITLE "Interviews - Part 2"
ISRC ITC001056642
FLAGS DCP
INDEX 00 09:30:48
FILE "03 - Interviews - Part 2.wav" WAVE
INDEX 01 00:00:00
 
Лог проверки качества
AUDIOCHECKER v2.0 beta (build 457) - by Dester - opdester@freemail.hu
~~~~~~~~~~~~~~~~~~~~~~~~~~~~~~~~~~
-=== DO NOT EDIT THIS FILE! ===-
Path: ...\Disc 2 - Historic Concerts - Set 1
01 -=- 01 - Presentation.flac -=- CDDA (100%)
02 -=- 02 - Drums Solo.flac -=- CDDA (100%)
03 -=- 03 - Piano Solo.flac -=- CDDA (100%)
04 -=- 04 - Duets - Part 1.flac -=- CDDA (100%)
Summary 100,00% CDDA
177529956


AUDIOCHECKER v2.0 beta (build 457) - by Dester - opdester@freemail.hu
~~~~~~~~~~~~~~~~~~~~~~~~~~~~~~~~~~
-=== DO NOT EDIT THIS FILE! ===-
Path: ...\Disc 3 - Historic Concerts - Set 2
01 -=- 01 - Duets - Part 1.flac -=- CDDA (99%)
02 -=- 02 - Interviews - Part 1.flac -=- CDDA (100%)
03 -=- 03 - Interviews - Part 2.flac -=- CDDA (100%)
Summary 99,67% CDDA
154738964
 
Состав
Max Roach percussion
Cecil Taylor piano
не ремастер
 
cd 4 Cecil Taylor – Olu Iwa
Треклист:
1 B Ee Ba Nganga Ban'a Eee! 48:21
2 Olu Iwa 27:09
Recorded live during the "Workshop Freie Musik 1986" - a festival of Improvised Music since 1969, organized and produced by FMP/Free Music Production-at the Academy of Arts, Berlin, Germany.
 
Лог создания рипа
X Lossless Decoder version 20120120 (139.0)
XLD extraction logfile from 2012-01-28 10:49:20 +0200
Cecil Taylor / Olu Iwa
Used drive : MATSHITA DVD-R UJ-898 (revision HC10)
Ripper mode : CDParanoia III 10.2
Disable audio cache : OK for the drive with a cache less than 2750KiB
Make use of C2 pointers : NO
Read offset correction : 102
Max retry count : 100
Gap status : Analyzed, Appended
TOC of the extracted CD
Track | Start | Length | Start sector | End sector
---------------------------------------------------------
1 | 00:00:00 | 48:20:74 | 0 | 217573
2 | 48:20:74 | 27:10:01 | 217574 | 339824
AccurateRip Summary
Track 01 : OK (confidence 2)
Track 02 : OK (confidence 2)
->All tracks accurately ripped.
All Tracks
Album gain : -2.48 dB
Peak : 0.949066
Statistics
Read error : 0
Skipped (treated as error) : 0
Edge jitter error (maybe fixed) : 0
Atom jitter error (maybe fixed) : 0
Drift error (maybe fixed) : 0
Dropped bytes error (maybe fixed) : 0
Duplicated bytes error (maybe fixed) : 0
Track 01
Filename : /Volumes/Think Jazz/Cecil Taylor - 2011 - The Complete Remastered Recordings on Black Saint & Soul Note - FLAC/Disc 4 - Olu Iwa/01 - B Ee Ba Nganga Ban'a Eee!.flac
Pre-gap length : 00:02:00
Track gain : -2.59 dB
Peak : 0.949066
CRC32 hash (test run) : 4B600428
CRC32 hash : 4B600428
CRC32 hash (skip zero) : C51E5B62
AccurateRip signature : B45D500A
->Accurately ripped! (confidence 2)
Statistics
Read error : 0
Skipped (treated as error) : 0
Edge jitter error (maybe fixed) : 0
Atom jitter error (maybe fixed) : 0
Drift error (maybe fixed) : 0
Dropped bytes error (maybe fixed) : 0
Duplicated bytes error (maybe fixed) : 0
Inconsistency in error sectors : 0
Track 02
Filename : /Volumes/Think Jazz/Cecil Taylor - 2011 - The Complete Remastered Recordings on Black Saint & Soul Note - FLAC/Disc 4 - Olu Iwa/02 - Olu Iwa (Lord of Character).flac
Track gain : -2.22 dB
Peak : 0.949066
CRC32 hash (test run) : A2B47566
CRC32 hash : A2B47566
CRC32 hash (skip zero) : 2F3C2983
AccurateRip signature : 26673062
->Accurately ripped! (confidence 2)
Statistics
Read error : 0
Skipped (treated as error) : 0
Edge jitter error (maybe fixed) : 0
Atom jitter error (maybe fixed) : 0
Drift error (maybe fixed) : 0
Dropped bytes error (maybe fixed) : 0
Duplicated bytes error (maybe fixed) : 0
Inconsistency in error sectors : 0
No errors occurred
End of status report
 
Содержание индексной карты (.CUE)
TITLE "Olu Iwa"
PERFORMER "Cecil Taylor"
REM GENRE "Jazz"
REM DATE "1986"
REM DISCID 0F11B302
FILE "01 - B Ee Ba Nganga Ban'a Eee!.wav" WAVE
TRACK 01 AUDIO
TITLE "B Ee Ba Nganga Ban'a Eee!"
ISRC ITC001056651
FLAGS DCP
INDEX 01 00:00:00
FILE "02 - Olu Iwa (Lord of Character).wav" WAVE
TRACK 02 AUDIO
TITLE "Olu Iwa (Lord of Character)"
ISRC ITC001056652
FLAGS DCP
INDEX 01 00:00:00
 
Лог проверки качества
AUDIOCHECKER v2.0 beta (build 457) - by Dester - opdester@freemail.hu
~~~~~~~~~~~~~~~~~~~~~~~~~~~~~~~~~~
-=== DO NOT EDIT THIS FILE! ===-
Path: ...\Disc 4 - Olu Iwa
01 -=- 01 - B Ee Ba Nganga Ban'a Eee!.flac -=- CDDA (100%)
02 -=- 02 - Olu Iwa (Lord of Character).flac -=- CDDA (99%)
Summary 99,50% CDDA
161277524
 
Состав
Cecil Taylor piano
William Parker bass
Steve Mccall drums
Thurman Barker percussion, marimba
Frank Wright tenor saxophone (1)
Peter Brötzmann tenor saxophone, tárogató (1)
Earl Mcintyre trombone (1)
 
cd 5 Cecil Taylor – For Olim
Треклист:
1 Olim 17:41
2 Glossalalia - Part Four 5:44
3 Mirror And Water Gazing 4:01
4 Living - Dedicated To Julian Beck 6:59
5 For The Death 1:33
6 For The Rabbit 3:41
7 For The Water Dog 1:44
8 The Question 3:04
Recorded live on 9 April 1986 during the "Workshop Freie Music 1986" at the Academy Of Arts, Berlin.
 
Лог создания рипа
X Lossless Decoder version 20120120 (139.0)
XLD extraction logfile from 2012-01-28 11:14:26 +0200
Cecil Taylor / For Olim
Used drive : MATSHITA DVD-R UJ-898 (revision HC10)
Ripper mode : CDParanoia III 10.2
Disable audio cache : OK for the drive with a cache less than 2750KiB
Make use of C2 pointers : NO
Read offset correction : 102
Max retry count : 100
Gap status : Analyzed, Appended
TOC of the extracted CD
Track | Start | Length | Start sector | End sector
---------------------------------------------------------
1 | 00:00:00 | 17:43:35 | 0 | 79759
2 | 17:43:35 | 05:44:72 | 79760 | 105631
3 | 23:28:32 | 04:07:29 | 105632 | 124185
4 | 27:35:61 | 07:00:37 | 124186 | 155722
5 | 34:36:23 | 01:35:41 | 155723 | 162888
6 | 36:11:64 | 03:43:16 | 162889 | 179629
7 | 39:55:05 | 01:45:27 | 179630 | 187531
8 | 41:40:32 | 03:04:53 | 187532 | 201384
AccurateRip Summary
Track 01 : OK (confidence 2)
Track 02 : OK (confidence 2)
Track 03 : OK (confidence 1)
Track 04 : OK (confidence 1)
Track 05 : OK (confidence 1)
Track 06 : OK (confidence 1)
Track 07 : OK (confidence 1)
Track 08 : OK (confidence 1)
->All tracks accurately ripped.
All Tracks
Album gain : 3.03 dB
Peak : 0.952881
Statistics
Read error : 0
Skipped (treated as error) : 0
Edge jitter error (maybe fixed) : 0
Atom jitter error (maybe fixed) : 0
Drift error (maybe fixed) : 0
Dropped bytes error (maybe fixed) : 0
Duplicated bytes error (maybe fixed) : 0
Track 01
Filename : /Volumes/Think Jazz/Cecil Taylor - 2011 - The Complete Remastered Recordings on Black Saint & Soul Note - FLAC/Disc 5 - For Olim/01 - Olim.flac
Pre-gap length : 00:02:00
Track gain : 3.95 dB
Peak : 0.854126
CRC32 hash (test run) : 9D0482E7
CRC32 hash : 9D0482E7
CRC32 hash (skip zero) : 1959ACDE
AccurateRip signature : 165BB639
->Accurately ripped! (confidence 2)
Statistics
Read error : 0
Skipped (treated as error) : 0
Edge jitter error (maybe fixed) : 0
Atom jitter error (maybe fixed) : 0
Drift error (maybe fixed) : 0
Dropped bytes error (maybe fixed) : 0
Duplicated bytes error (maybe fixed) : 0
Inconsistency in error sectors : 0
Track 02
Filename : /Volumes/Think Jazz/Cecil Taylor - 2011 - The Complete Remastered Recordings on Black Saint & Soul Note - FLAC/Disc 5 - For Olim/02 - Glossalalia - part four.flac
Pre-gap length : 00:02:04
Track gain : 4.27 dB
Peak : 0.729706
CRC32 hash (test run) : EF12248F
CRC32 hash : EF12248F
CRC32 hash (skip zero) : 16157322
AccurateRip signature : 2554F0E8
->Accurately ripped! (confidence 2)
Statistics
Read error : 0
Skipped (treated as error) : 0
Edge jitter error (maybe fixed) : 0
Atom jitter error (maybe fixed) : 0
Drift error (maybe fixed) : 0
Dropped bytes error (maybe fixed) : 0
Duplicated bytes error (maybe fixed) : 0
Inconsistency in error sectors : 0
Track 03
Filename : /Volumes/Think Jazz/Cecil Taylor - 2011 - The Complete Remastered Recordings on Black Saint & Soul Note - FLAC/Disc 5 - For Olim/03 - Mirror And Water Gazing.flac
Pre-gap length : 00:01:33
Track gain : 4.65 dB
Peak : 0.700928
CRC32 hash (test run) : 56442CE8
CRC32 hash : 56442CE8
CRC32 hash (skip zero) : 899028FA
AccurateRip signature : 74555C12
->Accurately ripped! (confidence 1)
Statistics
Read error : 0
Skipped (treated as error) : 0
Edge jitter error (maybe fixed) : 0
Atom jitter error (maybe fixed) : 0
Drift error (maybe fixed) : 0
Dropped bytes error (maybe fixed) : 0
Duplicated bytes error (maybe fixed) : 0
Inconsistency in error sectors : 0
Track 04
Filename : /Volumes/Think Jazz/Cecil Taylor - 2011 - The Complete Remastered Recordings on Black Saint & Soul Note - FLAC/Disc 5 - For Olim/04 - Living - dedicated to Julian Beck.flac
Pre-gap length : 00:03:33
Track gain : 2.53 dB
Peak : 0.952881
CRC32 hash (test run) : 210631C5
CRC32 hash : 210631C5
CRC32 hash (skip zero) : 30781A33
AccurateRip signature : D94D1FA8
->Accurately ripped! (confidence 1)
Statistics
Read error : 0
Skipped (treated as error) : 0
Edge jitter error (maybe fixed) : 0
Atom jitter error (maybe fixed) : 0
Drift error (maybe fixed) : 0
Dropped bytes error (maybe fixed) : 0
Duplicated bytes error (maybe fixed) : 0
Inconsistency in error sectors : 0
Track 05
Filename : /Volumes/Think Jazz/Cecil Taylor - 2011 - The Complete Remastered Recordings on Black Saint & Soul Note - FLAC/Disc 5 - For Olim/05 - For The Death.flac
Pre-gap length : 00:01:21
Track gain : 3.86 dB
Peak : 0.638306
CRC32 hash (test run) : 11054B2B
CRC32 hash : 11054B2B
CRC32 hash (skip zero) : 94B81124
AccurateRip signature : 367FDEB3
->Accurately ripped! (confidence 1)
Statistics
Read error : 0
Skipped (treated as error) : 0
Edge jitter error (maybe fixed) : 0
Atom jitter error (maybe fixed) : 0
Drift error (maybe fixed) : 0
Dropped bytes error (maybe fixed) : 0
Duplicated bytes error (maybe fixed) : 0
Inconsistency in error sectors : 0
Track 06
Filename : /Volumes/Think Jazz/Cecil Taylor - 2011 - The Complete Remastered Recordings on Black Saint & Soul Note - FLAC/Disc 5 - For Olim/06 - For The Rabbit.flac
Pre-gap length : 00:01:39
Track gain : -0.24 dB
Peak : 0.952850
CRC32 hash (test run) : 15085018
CRC32 hash : 15085018
CRC32 hash (skip zero) : E7014F61
AccurateRip signature : F8871C82
->Accurately ripped! (confidence 1)
Statistics
Read error : 0
Skipped (treated as error) : 0
Edge jitter error (maybe fixed) : 0
Atom jitter error (maybe fixed) : 0
Drift error (maybe fixed) : 0
Dropped bytes error (maybe fixed) : 0
Duplicated bytes error (maybe fixed) : 0
Inconsistency in error sectors : 0
Track 07
Filename : /Volumes/Think Jazz/Cecil Taylor - 2011 - The Complete Remastered Recordings on Black Saint & Soul Note - FLAC/Disc 5 - For Olim/07 - For The Water Dog.flac
Pre-gap length : 00:01:17
Track gain : 8.09 dB
Peak : 0.592285
CRC32 hash (test run) : FFE1DD8E
CRC32 hash : FFE1DD8E
CRC32 hash (skip zero) : AB4A1C26
AccurateRip signature : 4CD704C6
->Accurately ripped! (confidence 1)
Statistics
Read error : 0
Skipped (treated as error) : 0
Edge jitter error (maybe fixed) : 0
Atom jitter error (maybe fixed) : 0
Drift error (maybe fixed) : 0
Dropped bytes error (maybe fixed) : 0
Duplicated bytes error (maybe fixed) : 0
Inconsistency in error sectors : 0
Track 08
Filename : /Volumes/Think Jazz/Cecil Taylor - 2011 - The Complete Remastered Recordings on Black Saint & Soul Note - FLAC/Disc 5 - For Olim/08 - The Question.flac
Pre-gap length : 00:02:32
Track gain : 4.03 dB
Peak : 0.828918
CRC32 hash (test run) : 928C030E
CRC32 hash : 928C030E
CRC32 hash (skip zero) : 43EDC883
AccurateRip signature : 2A5F033E
->Accurately ripped! (confidence 1)
Statistics
Read error : 0
Skipped (treated as error) : 0
Edge jitter error (maybe fixed) : 0
Atom jitter error (maybe fixed) : 0
Drift error (maybe fixed) : 0
Dropped bytes error (maybe fixed) : 0
Duplicated bytes error (maybe fixed) : 0
Inconsistency in error sectors : 0
No errors occurred
End of status report
 
Содержание индексной карты (.CUE)
TITLE "For Olim"
PERFORMER "Cecil Taylor"
REM GENRE "Avantgarde"
REM DISCID 630A7D08
FILE "01 - Olim.wav" WAVE
TRACK 01 AUDIO
TITLE "Olim"
ISRC ITC001056643
FLAGS DCP
INDEX 01 00:00:00
TRACK 02 AUDIO
TITLE "Glossalalia - part four"
ISRC ITC001056644
FLAGS DCP
INDEX 00 17:41:31
FILE "02 - Glossalalia - part four.wav" WAVE
INDEX 01 00:00:00
TRACK 03 AUDIO
TITLE "Mirror And Water Gazing"
ISRC ITC001056645
FLAGS DCP
INDEX 00 05:43:39
FILE "03 - Mirror And Water Gazing.wav" WAVE
INDEX 01 00:00:00
TRACK 04 AUDIO
TITLE "Living - dedicated to Julian Beck"
ISRC ITC001056646
FLAGS DCP
INDEX 00 04:03:71
FILE "04 - Living - dedicated to Julian Beck.wav" WAVE
INDEX 01 00:00:00
TRACK 05 AUDIO
TITLE "For The Death"
ISRC ITC001056647
FLAGS DCP
INDEX 00 06:59:16
FILE "05 - For The Death.wav" WAVE
INDEX 01 00:00:00
TRACK 06 AUDIO
TITLE "For The Rabbit"
ISRC ITC001056648
FLAGS DCP
INDEX 00 01:34:02
FILE "06 - For The Rabbit.wav" WAVE
INDEX 01 00:00:00
TRACK 07 AUDIO
TITLE "For The Water Dog"
ISRC ITC001056649
FLAGS DCP
INDEX 00 03:41:74
FILE "07 - For The Water Dog.wav" WAVE
INDEX 01 00:00:00
TRACK 08 AUDIO
TITLE "The Question"
ISRC ITC001056650
FLAGS DCP
INDEX 00 01:42:70
FILE "08 - The Question.wav" WAVE
INDEX 01 00:00:00
 
Лог проверки качества
AUDIOCHECKER v2.0 beta (build 457) - by Dester - opdester@freemail.hu
~~~~~~~~~~~~~~~~~~~~~~~~~~~~~~~~~~
-=== DO NOT EDIT THIS FILE! ===-
Path: ...\Disc 5 - For Olim
01 -=- 01 - Olim.flac -=- CDDA (100%)
02 -=- 02 - Glossalalia - part four.flac -=- CDDA (100%)
03 -=- 03 - Mirror And Water Gazing.flac -=- CDDA (100%)
04 -=- 04 - Living - dedicated to Julian Beck.flac -=- CDDA (100%)
05 -=- 05 - For The Death.flac -=- CDDA (100%)
06 -=- 06 - For The Rabbit.flac -=- CDDA (100%)
07 -=- 07 - For The Water Dog.flac -=- CDDA (100%)
08 -=- 08 - The Question.flac -=- CDDA (100%)
Summary 100,00% CDDA
40077476
 
Состав
Cecil Taylor piano
По всем вопросам пишите личное сообщение пользователю M0p94ok.
21:35
229
Нет комментариев. Ваш будет первым!