Вы используете незарегистрированную версию компонента "Вкладки"!

Поиск

(Free Jazz, Free Improvisation) Steuart Liebig, Vinny Golia, Billy Mintz - Antipodes - 2001, FLAC (image+.cue), lossless

(Free Jazz, Free Improvisation) Steuart Liebig, Vinny Golia, Billy Mintz - Antipodes - 2001, FLAC (image+.cue), lossless
Треклист:
Steuart Liebig, Vinny Golia, Billy Mintz / Antipodes
Жанр: Free Jazz, Free Improvisation
Страна-производитель диска: US
Год издания диска: 2001
Издатель (лейбл): Cadence Jazz Records
Номер по каталогу: CJR 1129
Аудиокодек: FLAC (*.flac)
Тип рипа: image+.cue
Битрейт аудио: lossless
Продолжительность: 68:08
Источник (релизер): cd
Наличие сканов в содержимом раздачи: нет
Треклист:
1 Improvisation #1 12:13
2 Trioism #2 8:14
3 Improvisation #2 / Trioism #13 18:53
4 Improvisation #4 5:04
5 Trioism #1 8:15
6 Improvisation #5 15:24
 
Лог создания рипа
Exact Audio Copy V1.0 beta 2 from 29. April 2011
EAC extraction logfile from 28. January 2012, 14:56
Steuart Liebig, Vinny Golia, Billy Mintz / Antipodes
Used drive : Optiarc DVD RW AD-7170A Adapter: 0 ID: 0
Read mode : Secure
Utilize accurate stream : Yes
Defeat audio cache : Yes
Make use of C2 pointers : No
Read offset correction : 48
Overread into Lead-In and Lead-Out : No
Fill up missing offset samples with silence : Yes
Delete leading and trailing silent blocks : No
Null samples used in CRC calculations : Yes
Used interface : Native Win32 interface for Win NT & 2000
Used output format : User Defined Encoder
Selected bitrate : 320 kBit/s
Quality : High
Add ID3 tag : No
Command line compressor : C:\Program Files\Exact Audio Copy\Flac\flac.exe
Additional command line options : -V -8 -T "Date=%year%" -T "Genre=%genre%" %source%
TOC of the extracted CD
Track | Start | Length | Start sector | End sector
---------------------------------------------------------
1 | 0:00.00 | 12:13.73 | 0 | 55047
2 | 12:13.73 | 8:14.26 | 55048 | 92123
3 | 20:28.24 | 18:53.36 | 92124 | 177134
4 | 39:21.60 | 5:04.20 | 177135 | 199954
5 | 44:26.05 | 8:16.72 | 199955 | 237226
6 | 52:43.02 | 15:24.74 | 237227 | 306600
Range status and errors
Selected range
Filename C:\EAC\Downloads\Steuart Liebig, Vinny Golia, Billy Mintz - Antipodes.wav
Peak level 98.4 %
Extraction speed 5.5 X
Range quality 100.0 %
Test CRC 50CA2A67
Copy CRC 50CA2A67
Copy OK
No errors occurred
AccurateRip summary
Track 1 accurately ripped (confidence 1) [F27B0D51] (AR v1)
Track 2 accurately ripped (confidence 1) [E504FD2D] (AR v1)
Track 3 accurately ripped (confidence 1) [4E714673] (AR v1)
Track 4 accurately ripped (confidence 1) [DF43DAE7] (AR v1)
Track 5 accurately ripped (confidence 1) [F7EAB8A9] (AR v1)
Track 6 accurately ripped (confidence 1) [D4833BF3] (AR v1)
All tracks accurately ripped
End of status report
==== Log checksum D3BDB1C367E894F72EDA86F7E5A0C8B9BDFED449566D39FD658F470D08B2BAC3 ====
 
Содержание индексной карты (.CUE)
REM GENRE Jazz
REM DATE 2000
REM DISCID 4A0FF806
REM COMMENT "ExactAudioCopy v1.0b2"
PERFORMER "Steuart Liebig, Vinny Golia, Billy Mintz"
TITLE "Antipodes"
FILE "Steuart Liebig, Vinny Golia, Billy Mintz - Antipodes.flac" WAVE
TRACK 01 AUDIO
TITLE "improvisation #1"
PERFORMER "Steuart Liebig, Vinny Golia, Billy Mintz"
INDEX 01 00:00:00
TRACK 02 AUDIO
TITLE "trioism #2"
PERFORMER "Steuart Liebig, Vinny Golia, Billy Mintz"
INDEX 00 12:11:16
INDEX 01 12:13:73
TRACK 03 AUDIO
TITLE "improvisation #3 - trioism #13"
PERFORMER "Steuart Liebig, Vinny Golia, Billy Mintz"
INDEX 00 20:25:42
INDEX 01 20:28:24
TRACK 04 AUDIO
TITLE "improvisation #4"
PERFORMER "Steuart Liebig, Vinny Golia, Billy Mintz"
INDEX 00 39:19:03
INDEX 01 39:21:60
TRACK 05 AUDIO
TITLE "trioism #1"
PERFORMER "Steuart Liebig, Vinny Golia, Billy Mintz"
INDEX 00 44:23:23
INDEX 01 44:26:05
TRACK 06 AUDIO
TITLE "improvisation #5"
PERFORMER "Steuart Liebig, Vinny Golia, Billy Mintz"
INDEX 00 52:40:20
INDEX 01 52:43:02
Доп. информация: Recorded at Newzone Studios, 11 June 2000
 
Состав
Bass Guitar [Contrabassguitars], Electronics, Bass Guitar [Prepared Contrabassguitars] – Steuart Liebig
Clarinet [Contra-alto], Soprano Saxophone, Baritone Saxophone – Vinny Golia
Drums – Billy Mintz
Any questions -> support@pro-jazz.com. По всем вопросам пишите -> support@pro-jazz.com
21:34
160
Нет комментариев. Ваш будет первым!