Вы используете незарегистрированную версию компонента "Вкладки"!

Поиск

(Free Jazz) Anthony Braxton - The Complete Remastered Recordings on Black Saint & Soul Note (Max Roach, the Northwest Creative Orchestra) (8cd) - 2011, FLAC (tracks+.cue), lossless

(Free Jazz) Anthony Braxton - The Complete Remastered Recordings on Black Saint & Soul Note (Max Roach, the Northwest Creative Orchestra) (8cd) - 2011, FLAC (tracks+.cue), lossless
Издатель (лейбл):
Треклист:
Anthony Braxton / The Complete Remastered Recordings on Black Saint & Soul Note
Жанр: Free Jazz
Страна-производитель диска: Италия
Год издания диска: 2011
Издатель (лейбл): C.A.M. Jazz
Номер по каталогу: BXS 1012
Страна: США
Аудиокодек: FLAC (*.flac)
Тип рипа: tracks+.cue
Битрейт аудио: lossless
Продолжительность: 7:00:05
Источник (релизер): вот.сиди (qazimodo)
Наличие сканов в содержимом раздачи: нет
 
cd 1 Max Roach featuring Anthony Braxton - Birth and Rebirth
Треклист:
1. Birth
2. Magic and Music
3. Tropical Forest
4. Dance Griot
5. Spirit Possession
6. Soft Shoe
7. Rebith
Milan, Italy, September 7, 1978
 
Лог создания рипа
X Lossless Decoder version 20111214 (138.1)
XLD extraction logfile from 2012-01-28 06:41:32 +0000
Max Roach & Anthony Braxton / Birth And Rebirth
Used drive : HL-DT-ST DVDRW GS23N (revision SB00)
Ripper mode : XLD Secure Ripper
Disable audio cache : OK for the drive with a cache less than 1375KiB
Make use of C2 pointers : NO
Read offset correction : 667
Max retry count : 100
Gap status : Analyzed, Appended (except HTOA)
TOC of the extracted CD
Track | Start | Length | Start sector | End sector
---------------------------------------------------------
1 | 00:00:00 | 09:40:59 | 0 | 43558
2 | 09:40:59 | 06:34:27 | 43559 | 73135
3 | 16:15:11 | 05:05:11 | 73136 | 96021
4 | 21:20:22 | 05:06:43 | 96022 | 119014
5 | 26:26:65 | 06:40:25 | 119015 | 149039
6 | 33:07:15 | 02:58:05 | 149040 | 162394
7 | 36:05:20 | 07:12:20 | 162395 | 194814
AccurateRip Summary
Track 01 : OK (confidence 1)
Track 02 : OK (confidence 1)
Track 03 : OK (confidence 1)
Track 04 : OK (confidence 1)
Track 05 : OK (confidence 1)
Track 06 : OK (confidence 1)
Track 07 : OK (confidence 1)
->All tracks accurately ripped.
All Tracks
Album gain : -4.72 dB
Peak : 0.952942
Statistics
Read error : 0
Jitter error (maybe fixed) : 0
Retry sector count : 0
Damaged sector count : 0
Track 01
Filename : /Users/cbalma/Desktop/ab/Max Roach & Anthony Braxton - Birth And Rebirth (1978) [FLAC]/01 Birth.flac
Pre-gap length : 00:02:00
Track gain : -4.77 dB
Peak : 0.952942
CRC32 hash (test run) : 0DCBE92D
CRC32 hash : 0DCBE92D
CRC32 hash (skip zero) : BF35B88B
AccurateRip signature : C814D1C9
->Accurately ripped! (confidence 1)
Statistics
Read error : 0
Jitter error (maybe fixed) : 0
Retry sector count : 0
Damaged sector count : 0
Track 02
Filename : /Users/cbalma/Desktop/ab/Max Roach & Anthony Braxton - Birth And Rebirth (1978) [FLAC]/02 Magic And Music.flac
Pre-gap length : 00:01:00
Track gain : -2.41 dB
Peak : 0.952911
CRC32 hash (test run) : 97DB77A7
CRC32 hash : 97DB77A7
CRC32 hash (skip zero) : AF602E7E
AccurateRip signature : 9802AF32
->Accurately ripped! (confidence 1)
Statistics
Read error : 0
Jitter error (maybe fixed) : 0
Retry sector count : 0
Damaged sector count : 0
Track 03
Filename : /Users/cbalma/Desktop/ab/Max Roach & Anthony Braxton - Birth And Rebirth (1978) [FLAC]/03 Tropical Forest.flac
Pre-gap length : 00:01:53
Track gain : -3.70 dB
Peak : 0.952942
CRC32 hash (test run) : 18067E2E
CRC32 hash : 18067E2E
CRC32 hash (skip zero) : 17F83D94
AccurateRip signature : A03C4DF1
->Accurately ripped! (confidence 1)
Statistics
Read error : 0
Jitter error (maybe fixed) : 0
Retry sector count : 0
Damaged sector count : 0
Track 04
Filename : /Users/cbalma/Desktop/ab/Max Roach & Anthony Braxton - Birth And Rebirth (1978) [FLAC]/04 Dance Griot.flac
Pre-gap length : 00:01:26
Track gain : -4.99 dB
Peak : 0.952942
CRC32 hash (test run) : 5195F76A
CRC32 hash : 5195F76A
CRC32 hash (skip zero) : 865FEB58
AccurateRip signature : CA394076
->Accurately ripped! (confidence 1)
Statistics
Read error : 0
Jitter error (maybe fixed) : 0
Retry sector count : 0
Damaged sector count : 0
Track 05
Filename : /Users/cbalma/Desktop/ab/Max Roach & Anthony Braxton - Birth And Rebirth (1978) [FLAC]/05 Spirit Possession.flac
Pre-gap length : 00:02:04
Track gain : -5.00 dB
Peak : 0.952942
CRC32 hash (test run) : E4BEEF52
CRC32 hash : E4BEEF52
CRC32 hash (skip zero) : AAC2ABA5
AccurateRip signature : C1F957D6
->Accurately ripped! (confidence 1)
Statistics
Read error : 0
Jitter error (maybe fixed) : 0
Retry sector count : 0
Damaged sector count : 0
Track 06
Filename : /Users/cbalma/Desktop/ab/Max Roach & Anthony Braxton - Birth And Rebirth (1978) [FLAC]/06 Soft Shoe.flac
Pre-gap length : 00:01:50
Track gain : -3.34 dB
Peak : 0.952911
CRC32 hash (test run) : E44F16D3
CRC32 hash : E44F16D3
CRC32 hash (skip zero) : C65381BA
AccurateRip signature : A88B1F80
->Accurately ripped! (confidence 1)
Statistics
Read error : 0
Jitter error (maybe fixed) : 0
Retry sector count : 0
Damaged sector count : 0
Track 07
Filename : /Users/cbalma/Desktop/ab/Max Roach & Anthony Braxton - Birth And Rebirth (1978) [FLAC]/07 Rebirth.flac
Pre-gap length : 00:01:03
Track gain : -5.30 dB
Peak : 0.952942
CRC32 hash (test run) : D31008A5
CRC32 hash : D31008A5
CRC32 hash (skip zero) : 5E28FB7A
AccurateRip signature : 2EDDB25C
->Accurately ripped! (confidence 1)
Statistics
Read error : 0
Jitter error (maybe fixed) : 0
Retry sector count : 0
Damaged sector count : 0
No errors occurred
End of status report
 
Содержание индексной карты (.CUE)
TITLE "Birth And Rebirth"
PERFORMER "Max Roach & Anthony Braxton"
REM GENRE "Jazz"
REM DATE "1978"
REM DISCNUMBER 1
REM TOTALDISCS 8
REM DISCID 760A2507
REM REPLAYGAIN_ALBUM_GAIN -4.72 dB
REM REPLAYGAIN_ALBUM_PEAK 0.952942
FILE "01 Birth.flac" WAVE
TRACK 01 AUDIO
TITLE "Birth"
PERFORMER "Max Roach & Anthony Braxton"
SONGWRITER "Max Roach & Anthony Braxton"
ISRC ITBP71157605
FLAGS DCP
REM REPLAYGAIN_TRACK_GAIN -4.77 dB
REM REPLAYGAIN_TRACK_PEAK 0.952942
INDEX 01 00:00:00
TRACK 02 AUDIO
TITLE "Magic And Music"
PERFORMER "Max Roach & Anthony Braxton"
SONGWRITER "Max Roach & Anthony Braxton"
ISRC ITBP71157606
FLAGS DCP
REM REPLAYGAIN_TRACK_GAIN -2.41 dB
REM REPLAYGAIN_TRACK_PEAK 0.952911
INDEX 00 09:39:59
FILE "02 Magic And Music.flac" WAVE
INDEX 01 00:00:00
TRACK 03 AUDIO
TITLE "Tropical Forest"
PERFORMER "Max Roach & Anthony Braxton"
SONGWRITER "Max Roach & Anthony Braxton"
ISRC ITBP71157607
FLAGS DCP
REM REPLAYGAIN_TRACK_GAIN -3.70 dB
REM REPLAYGAIN_TRACK_PEAK 0.952942
INDEX 00 06:32:49
FILE "03 Tropical Forest.flac" WAVE
INDEX 01 00:00:00
TRACK 04 AUDIO
TITLE "Dance Griot"
PERFORMER "Max Roach & Anthony Braxton"
SONGWRITER "Max Roach & Anthony Braxton"
ISRC ITBP71157608
FLAGS DCP
REM REPLAYGAIN_TRACK_GAIN -4.99 dB
REM REPLAYGAIN_TRACK_PEAK 0.952942
INDEX 00 05:03:60
FILE "04 Dance Griot.flac" WAVE
INDEX 01 00:00:00
TRACK 05 AUDIO
TITLE "Spirit Possession"
PERFORMER "Max Roach & Anthony Braxton"
SONGWRITER "Max Roach & Anthony Braxton"
ISRC ITBP71157609
FLAGS DCP
REM REPLAYGAIN_TRACK_GAIN -5.00 dB
REM REPLAYGAIN_TRACK_PEAK 0.952942
INDEX 00 05:04:39
FILE "05 Spirit Possession.flac" WAVE
INDEX 01 00:00:00
TRACK 06 AUDIO
TITLE "Soft Shoe"
PERFORMER "Max Roach & Anthony Braxton"
SONGWRITER "Max Roach & Anthony Braxton"
ISRC ITBP71157610
FLAGS DCP
REM REPLAYGAIN_TRACK_GAIN -3.34 dB
REM REPLAYGAIN_TRACK_PEAK 0.952911
INDEX 00 06:38:50
FILE "06 Soft Shoe.flac" WAVE
INDEX 01 00:00:00
TRACK 07 AUDIO
TITLE "Rebirth"
PERFORMER "Max Roach & Anthony Braxton"
SONGWRITER "Max Roach & Anthony Braxton"
ISRC ITBP71157611
FLAGS DCP
REM REPLAYGAIN_TRACK_GAIN -5.30 dB
REM REPLAYGAIN_TRACK_PEAK 0.952942
INDEX 00 02:57:02
FILE "07 Rebirth.flac" WAVE
INDEX 01 00:00:00
 
Лог проверки качества
AUDIOCHECKER v2.0 beta (build 457) - by Dester - opdester@freemail.hu
~~~~~~~~~~~~~~~~~~~~~~~~~~~~~~~~~~
-=== DO NOT EDIT THIS FILE! ===-
Path: ...\Max Roach & Anthony Braxton - Birth And Rebirth (1978) [FLAC]
01 -=- 01 Birth.flac -=- CDDA (100%)
02 -=- 02 Magic And Music.flac -=- CDDA (99%)
03 -=- 03 Tropical Forest.flac -=- CDDA (100%)
04 -=- 04 Dance Griot.flac -=- CDDA (100%)
05 -=- 05 Spirit Possession.flac -=- CDDA (100%)
06 -=- 06 Soft Shoe.flac -=- CDDA (94%)
07 -=- 07 Rebirth.flac -=- CDDA (100%)
Summary 99,00% CDDA
219719796
 
Состав
Anthony Braxton alto, soprano saxophones, clarinet
Max Roach drums
не ремастер
 
cd 2 Anthony Braxton - Four Compositions (Quartet) 1983
Треклист:
1. Composition Nº 105 A
2. Composition Nº 69 M
3. Composition Nº 69 O
4. Composition Nº 69 Q
Milan, Italy, March 9 & 10, 1983
 
Лог создания рипа
X Lossless Decoder version 20111214 (138.1)
XLD extraction logfile from 2012-01-28 16:53:43 +0000
Anthony Braxton / Four Compositions (Quartet 1983)
Used drive : HL-DT-ST DVDRW GS23N (revision SB00)
Ripper mode : XLD Secure Ripper
Disable audio cache : OK for the drive with a cache less than 1375KiB
Make use of C2 pointers : NO
Read offset correction : 667
Max retry count : 100
Gap status : Analyzed, Appended (except HTOA)
TOC of the extracted CD
Track | Start | Length | Start sector | End sector
---------------------------------------------------------
1 | 00:00:00 | 20:02:15 | 0 | 90164
2 | 20:02:15 | 07:13:41 | 90165 | 122680
3 | 27:15:56 | 08:44:28 | 122681 | 162008
4 | 36:00:09 | 05:23:21 | 162009 | 186254
AccurateRip Summary
Track 01 : OK (confidence 1)
Track 02 : OK (confidence 1)
Track 03 : OK (confidence 1)
Track 04 : OK (confidence 1)
->All tracks accurately ripped.
All Tracks
Album gain : -2.09 dB
Peak : 0.952972
Statistics
Read error : 0
Jitter error (maybe fixed) : 0
Retry sector count : 0
Damaged sector count : 0
Track 01
Filename : /Users/cbalma/Desktop/ab/Anthony Braxton - Four Compositions (Quartet 1983) (1983) [FLAC]/01 Composition - No. 105 A.flac
Pre-gap length : 00:02:00
Track gain : -2.24 dB
Peak : 0.952972
CRC32 hash (test run) : 5C299863
CRC32 hash : 5C299863
CRC32 hash (skip zero) : 73BD9690
AccurateRip signature : 3D061A13
->Accurately ripped! (confidence 1)
Statistics
Read error : 0
Jitter error (maybe fixed) : 0
Retry sector count : 0
Damaged sector count : 0
Track 02
Filename : /Users/cbalma/Desktop/ab/Anthony Braxton - Four Compositions (Quartet 1983) (1983) [FLAC]/02 Composition - No. 69 M.flac
Pre-gap length : 00:03:29
Track gain : -2.44 dB
Peak : 0.952942
CRC32 hash (test run) : 46968DE8
CRC32 hash : 46968DE8
CRC32 hash (skip zero) : 3691660D
AccurateRip signature : 01F7B7F7
->Accurately ripped! (confidence 1)
Statistics
Read error : 0
Jitter error (maybe fixed) : 0
Retry sector count : 0
Damaged sector count : 0
Track 03
Filename : /Users/cbalma/Desktop/ab/Anthony Braxton - Four Compositions (Quartet 1983) (1983) [FLAC]/03 Composition - No. 69 O.flac
Pre-gap length : 00:01:49
Track gain : 0.24 dB
Peak : 0.952850
CRC32 hash (test run) : 020E6C02
CRC32 hash : 020E6C02
CRC32 hash (skip zero) : 79D46681
AccurateRip signature : A9D67970
->Accurately ripped! (confidence 1)
Statistics
Read error : 0
Jitter error (maybe fixed) : 0
Retry sector count : 0
Damaged sector count : 0
Track 04
Filename : /Users/cbalma/Desktop/ab/Anthony Braxton - Four Compositions (Quartet 1983) (1983) [FLAC]/04 Composition - No 69 Q.flac
Pre-gap length : 00:03:65
Track gain : -2.96 dB
Peak : 0.952942
CRC32 hash (test run) : CA04CD60
CRC32 hash : CA04CD60
CRC32 hash (skip zero) : 85410F6B
AccurateRip signature : 0B11DEE3
->Accurately ripped! (confidence 1)
Statistics
Read error : 0
Jitter error (maybe fixed) : 0
Retry sector count : 0
Damaged sector count : 0
No errors occurred
End of status report
 
Содержание индексной карты (.CUE)
TITLE "Four Compositions (Quartet 1983)"
PERFORMER "Anthony Braxton"
REM GENRE "Jazz"
REM DATE "1983"
REM DISCNUMBER 2
REM TOTALDISCS 8
REM DISCID 2509B304
REM REPLAYGAIN_ALBUM_GAIN -2.09 dB
REM REPLAYGAIN_ALBUM_PEAK 0.952972
FILE "01 Composition - No. 105 A.flac" WAVE
TRACK 01 AUDIO
TITLE "Composition - No. 105 A"
PERFORMER "Anthony Braxton"
SONGWRITER "Anthony Braxton"
ISRC ITBP71157601
FLAGS DCP
REM REPLAYGAIN_TRACK_GAIN -2.24 dB
REM REPLAYGAIN_TRACK_PEAK 0.952972
INDEX 01 00:00:00
TRACK 02 AUDIO
TITLE "Composition - No. 69 M"
PERFORMER "Anthony Braxton"
SONGWRITER "Anthony Braxton"
ISRC ITBP71157602
FLAGS DCP
REM REPLAYGAIN_TRACK_GAIN -2.44 dB
REM REPLAYGAIN_TRACK_PEAK 0.952942
INDEX 00 19:58:61
FILE "02 Composition - No. 69 M.flac" WAVE
INDEX 01 00:00:00
TRACK 03 AUDIO
TITLE "Composition - No. 69 O"
PERFORMER "Anthony Braxton"
SONGWRITER "Anthony Braxton"
ISRC ITBP71157603
FLAGS DCP
REM REPLAYGAIN_TRACK_GAIN 0.24 dB
REM REPLAYGAIN_TRACK_PEAK 0.952850
INDEX 00 07:11:67
FILE "03 Composition - No. 69 O.flac" WAVE
INDEX 01 00:00:00
TRACK 04 AUDIO
TITLE "Composition - No 69 Q"
PERFORMER "Anthony Braxton"
SONGWRITER "Anthony Braxton"
ISRC ITBP71157604
FLAGS DCP
REM REPLAYGAIN_TRACK_GAIN -2.96 dB
REM REPLAYGAIN_TRACK_PEAK 0.952942
INDEX 00 08:40:38
FILE "04 Composition - No 69 Q.flac" WAVE
INDEX 01 00:00:00
 
Лог проверки качества
AUDIOCHECKER v2.0 beta (build 457) - by Dester - opdester@freemail.hu
~~~~~~~~~~~~~~~~~~~~~~~~~~~~~~~~~~
-=== DO NOT EDIT THIS FILE! ===-
Path: ...\Anthony Braxton - Four Compositions (Quartet 1983) (1983) [FLAC]
01 -=- 01 Composition - No. 105 A.flac -=- CDDA (99%)
02 -=- 02 Composition - No. 69 M.flac -=- CDDA (100%)
03 -=- 03 Composition - No. 69 O.flac -=- CDDA (100%)
04 -=- 04 Composition - No 69 Q.flac -=- CDDA (100%)
Summary 99,75% CDDA
57626756
 
Состав
George Lewis trombone
Anthony Braxton alto, soprano saxophones
John Lindberg bass
Gerry Hemingway percussion
не ремастер
 
cd 3 Anthony Braxton - Six Compositions (Quartet) 1984
Треклист:
1. Composition Nº 114 (+108A)
2. Composition Nº 110 C
3. Composition Nº 105
4. Composition Nº 110 A (+108B)
5. Composition Nº 110 D
6. Composition Nº 116
New York, September 10 & 11, 1984
 
Лог создания рипа
X Lossless Decoder version 20111214 (138.1)
XLD extraction logfile from 2012-01-28 15:39:39 +0000
Anthony Braxton / Six Compositions (Quartet) 1984
Used drive : HL-DT-ST DVDRW GS23N (revision SB00)
Ripper mode : XLD Secure Ripper
Disable audio cache : OK for the drive with a cache less than 1375KiB
Make use of C2 pointers : NO
Read offset correction : 667
Max retry count : 100
Gap status : Analyzed, Appended (except HTOA)
TOC of the extracted CD
Track | Start | Length | Start sector | End sector
---------------------------------------------------------
1 | 00:00:00 | 07:13:36 | 0 | 32510
2 | 07:13:36 | 04:40:41 | 32511 | 53551
3 | 11:54:02 | 06:43:19 | 53552 | 83795
4 | 18:37:21 | 05:04:66 | 83796 | 106661
5 | 23:42:12 | 02:45:16 | 106662 | 119052
6 | 26:27:28 | 09:48:06 | 119053 | 163158
AccurateRip Summary
Track 01 : OK (confidence 1)
Track 02 : OK (confidence 1)
Track 03 : OK (confidence 1)
Track 04 : OK (confidence 1)
Track 05 : OK (confidence 1)
Track 06 : OK (confidence 1)
->All tracks accurately ripped.
All Tracks
Album gain : -6.95 dB
Peak : 0.952942
Statistics
Read error : 0
Jitter error (maybe fixed) : 0
Retry sector count : 0
Damaged sector count : 0
Track 01
Filename : /Users/cbalma/Desktop/ab/Anthony Braxton - Six Compositions (Quartet) 1984 (2011) [FLAC]/01 Composition No 114 (+108A).flac
Pre-gap length : 00:02:00
Track gain : -6.57 dB
Peak : 0.952942
CRC32 hash (test run) : B240660E
CRC32 hash : B240660E
CRC32 hash (skip zero) : 9521CE5C
AccurateRip signature : 1A2D1085
->Accurately ripped! (confidence 1)
Statistics
Read error : 0
Jitter error (maybe fixed) : 0
Retry sector count : 0
Damaged sector count : 0
Track 02
Filename : /Users/cbalma/Desktop/ab/Anthony Braxton - Six Compositions (Quartet) 1984 (2011) [FLAC]/02 Composition No 110C.flac
Pre-gap length : 00:02:44
Track gain : -5.89 dB
Peak : 0.952911
CRC32 hash (test run) : 7AA91139
CRC32 hash : 7AA91139
CRC32 hash (skip zero) : 531D2160
AccurateRip signature : 1142819A
->Accurately ripped! (confidence 1)
Statistics
Read error : 0
Jitter error (maybe fixed) : 0
Retry sector count : 0
Damaged sector count : 0
Track 03
Filename : /Users/cbalma/Desktop/ab/Anthony Braxton - Six Compositions (Quartet) 1984 (2011) [FLAC]/03 Composition No 115.flac
Pre-gap length : 00:03:58
Track gain : -7.46 dB
Peak : 0.952942
CRC32 hash (test run) : CDD43F04
CRC32 hash : CDD43F04
CRC32 hash (skip zero) : B7276885
AccurateRip signature : 19C8BD0C
->Accurately ripped! (confidence 1)
Statistics
Read error : 0
Jitter error (maybe fixed) : 0
Retry sector count : 0
Damaged sector count : 0
Track 04
Filename : /Users/cbalma/Desktop/ab/Anthony Braxton - Six Compositions (Quartet) 1984 (2011) [FLAC]/04 Composition No 110A (+108B).flac
Pre-gap length : 00:02:32
Track gain : -6.53 dB
Peak : 0.952942
CRC32 hash (test run) : 88B5B29A
CRC32 hash : 88B5B29A
CRC32 hash (skip zero) : F40D3209
AccurateRip signature : 253179F5
->Accurately ripped! (confidence 1)
Statistics
Read error : 0
Jitter error (maybe fixed) : 0
Retry sector count : 0
Damaged sector count : 0
Track 05
Filename : /Users/cbalma/Desktop/ab/Anthony Braxton - Six Compositions (Quartet) 1984 (2011) [FLAC]/05 Composition No 110D.flac
Pre-gap length : 00:03:22
Track gain : -4.87 dB
Peak : 0.952911
CRC32 hash (test run) : 0013CEDE
CRC32 hash : 0013CEDE
CRC32 hash (skip zero) : F5767B7A
AccurateRip signature : 1C79FE25
->Accurately ripped! (confidence 1)
Statistics
Read error : 0
Jitter error (maybe fixed) : 0
Retry sector count : 0
Damaged sector count : 0
Track 06
Filename : /Users/cbalma/Desktop/ab/Anthony Braxton - Six Compositions (Quartet) 1984 (2011) [FLAC]/06 Composition No 116.flac
Pre-gap length : 00:04:03
Track gain : -7.34 dB
Peak : 0.952942
CRC32 hash (test run) : DC83A3A0
CRC32 hash : DC83A3A0
CRC32 hash (skip zero) : 5988672E
AccurateRip signature : CF005711
->Accurately ripped! (confidence 1)
Statistics
Read error : 0
Jitter error (maybe fixed) : 0
Retry sector count : 0
Damaged sector count : 0
No errors occurred
End of status report
 
Содержание индексной карты (.CUE)
TITLE "Six Compositions (Quartet) 1984"
PERFORMER "Anthony Braxton"
REM GENRE "Jazz"
REM DATE "2011"
REM DISCNUMBER 3
REM TOTALDISCS 8
REM DISCID 4A087F06
REM REPLAYGAIN_ALBUM_GAIN -6.95 dB
REM REPLAYGAIN_ALBUM_PEAK 0.952942
FILE "01 Composition No 114 (+108A).flac" WAVE
TRACK 01 AUDIO
TITLE "Composition No 114 (+108A)"
PERFORMER "Anthony Braxton"
SONGWRITER "Anthony Braxton"
ISRC ITBP71157627
FLAGS DCP
REM REPLAYGAIN_TRACK_GAIN -6.57 dB
REM REPLAYGAIN_TRACK_PEAK 0.952942
INDEX 01 00:00:00
TRACK 02 AUDIO
TITLE "Composition No 110C"
PERFORMER "Anthony Braxton"
SONGWRITER "Anthony Braxton"
ISRC ITBP71157632
FLAGS DCP
REM REPLAYGAIN_TRACK_GAIN -5.89 dB
REM REPLAYGAIN_TRACK_PEAK 0.952911
INDEX 00 07:10:67
FILE "02 Composition No 110C.flac" WAVE
INDEX 01 00:00:00
TRACK 03 AUDIO
TITLE "Composition No 115"
PERFORMER "Anthony Braxton"
SONGWRITER "Anthony Braxton"
ISRC ITBP71157629
FLAGS DCP
REM REPLAYGAIN_TRACK_GAIN -7.46 dB
REM REPLAYGAIN_TRACK_PEAK 0.952942
INDEX 00 04:36:58
FILE "03 Composition No 115.flac" WAVE
INDEX 01 00:00:00
TRACK 04 AUDIO
TITLE "Composition No 110A (+108B)"
PERFORMER "Anthony Braxton"
SONGWRITER "Anthony Braxton"
ISRC ITBP71157628
FLAGS DCP
REM REPLAYGAIN_TRACK_GAIN -6.53 dB
REM REPLAYGAIN_TRACK_PEAK 0.952942
INDEX 00 06:40:62
FILE "04 Composition No 110A (+108B).flac" WAVE
INDEX 01 00:00:00
TRACK 05 AUDIO
TITLE "Composition No 110D"
PERFORMER "Anthony Braxton"
SONGWRITER "Anthony Braxton"
ISRC ITBP71157630
FLAGS DCP
REM REPLAYGAIN_TRACK_GAIN -4.87 dB
REM REPLAYGAIN_TRACK_PEAK 0.952911
INDEX 00 05:01:44
FILE "05 Composition No 110D.flac" WAVE
INDEX 01 00:00:00
TRACK 06 AUDIO
TITLE "Composition No 116"
PERFORMER "Anthony Braxton"
SONGWRITER "Anthony Braxton"
ISRC ITBP71157631
FLAGS DCP
REM REPLAYGAIN_TRACK_GAIN -7.34 dB
REM REPLAYGAIN_TRACK_PEAK 0.952942
INDEX 00 02:41:13
FILE "06 Composition No 116.flac" WAVE
INDEX 01 00:00:00
 
Лог проверки качества
AUDIOCHECKER v2.0 beta (build 457) - by Dester - opdester@freemail.hu
~~~~~~~~~~~~~~~~~~~~~~~~~~~~~~~~~~
-=== DO NOT EDIT THIS FILE! ===-
Path: ...\Anthony Braxton - Six Compositions (Quartet) 1984 (2011) [FLAC]
01 -=- 01 Composition No 114 (+108A).flac -=- CDDA (100%)
02 -=- 02 Composition No 110C.flac -=- CDDA (99%)
03 -=- 03 Composition No 115.flac -=- CDDA (100%)
04 -=- 04 Composition No 110A (+108B).flac -=- CDDA (100%)
05 -=- 05 Composition No 110D.flac -=- CDDA (100%)
06 -=- 06 Composition No 116.flac -=- CDDA (100%)
Summary 99,83% CDDA
16535572
 
Состав
Anthony Braxton alto, soprano saxophones
Marilyn Crispell piano
John Lindberg bass
Gerry Hemingway percussion
не ремастер
 
cd 4 Anthony Braxton - Five Compositions (Quartet) 1986
Треклист:
1. Composition Nº 131
2. Composition Nº 88
3. Composition Nº 124
4. Composition Nº 122
5. Composition Nº 101
Milan, Italy, July 2 & 3, 1986
 
Лог создания рипа
X Lossless Decoder version 20111214 (138.1)
XLD extraction logfile from 2012-01-28 00:49:47 +0000
Anthony Braxton / Five Compositions (Quartet) 1986
Used drive : HL-DT-ST DVDRW GS23N (revision SB00)
Ripper mode : XLD Secure Ripper
Disable audio cache : OK for the drive with a cache less than 1375KiB
Make use of C2 pointers : NO
Read offset correction : 667
Max retry count : 100
Gap status : Analyzed, Appended (except HTOA)
TOC of the extracted CD
Track | Start | Length | Start sector | End sector
---------------------------------------------------------
1 | 00:00:00 | 07:09:63 | 0 | 32237
2 | 07:09:63 | 05:55:67 | 32238 | 58929
3 | 13:05:55 | 09:07:03 | 58930 | 99957
4 | 22:12:58 | 09:32:19 | 99958 | 142876
5 | 31:45:02 | 11:31:61 | 142877 | 194762
AccurateRip Summary
Disc not found in AccurateRip DB.
All Tracks
Album gain : 0.17 dB
Peak : 0.952881
Statistics
Read error : 0
Jitter error (maybe fixed) : 0
Retry sector count : 0
Damaged sector count : 0
Track 01
Filename : /Users/cbalma/Desktop/ab/Anthony Braxton - Five Compositions (Quartet) 1986 (2011) [FLAC]/01 Composition - No. 131.flac
Pre-gap length : 00:02:00
Track gain : -1.33 dB
Peak : 0.952881
CRC32 hash (test run) : 1FA0F835
CRC32 hash : 1FA0F835
CRC32 hash (skip zero) : 51D84A57
AccurateRip signature : FDD56A79
->Track not present in AccurateRip database.
Statistics
Read error : 0
Jitter error (maybe fixed) : 0
Retry sector count : 0
Damaged sector count : 0
Track 02
Filename : /Users/cbalma/Desktop/ab/Anthony Braxton - Five Compositions (Quartet) 1986 (2011) [FLAC]/02 Composition - No. 88 (+ 108C).flac
Pre-gap length : 00:02:52
Track gain : 1.55 dB
Peak : 0.952850
CRC32 hash (test run) : A82B48E1
CRC32 hash : A82B48E1
CRC32 hash (skip zero) : 9C7E69C7
AccurateRip signature : 8CE55C75
->Track not present in AccurateRip database.
Statistics
Read error : 0
Jitter error (maybe fixed) : 0
Retry sector count : 0
Damaged sector count : 0
Track 03
Filename : /Users/cbalma/Desktop/ab/Anthony Braxton - Five Compositions (Quartet) 1986 (2011) [FLAC]/03 Composition - No. 124 (+ 108D + 96).flac
Pre-gap length : 00:02:53
Track gain : 0.34 dB
Peak : 0.850647
CRC32 hash (test run) : 1D0A414D
CRC32 hash : 1D0A414D
CRC32 hash (skip zero) : E05AB2BE
AccurateRip signature : 9F794548
->Track not present in AccurateRip database.
Statistics
Read error : 0
Jitter error (maybe fixed) : 0
Retry sector count : 0
Damaged sector count : 0
Track 04
Filename : /Users/cbalma/Desktop/ab/Anthony Braxton - Five Compositions (Quartet) 1986 (2011) [FLAC]/04 Composition - No. 122 (+ 108 + 96).flac
Pre-gap length : 00:03:51
Track gain : 0.27 dB
Peak : 0.789490
CRC32 hash (test run) : AD09E3CE
CRC32 hash : AD09E3CE
CRC32 hash (skip zero) : 422D7493
AccurateRip signature : 2F9621D7
->Track not present in AccurateRip database.
Statistics
Read error : 0
Jitter error (maybe fixed) : 0
Retry sector count : 0
Damaged sector count : 0
Track 05
Filename : /Users/cbalma/Desktop/ab/Anthony Braxton - Five Compositions (Quartet) 1986 (2011) [FLAC]/05 Composition - No. 101 (+ 31 + 86 + 30).flac
Pre-gap length : 00:02:49
Track gain : 1.76 dB
Peak : 0.952881
CRC32 hash (test run) : DEAD9545
CRC32 hash : DEAD9545
CRC32 hash (skip zero) : F87A76B2
AccurateRip signature : 693D4C75
->Track not present in AccurateRip database.
Statistics
Read error : 0
Jitter error (maybe fixed) : 0
Retry sector count : 0
Damaged sector count : 0
No errors occurred
End of status report
 
Содержание индексной карты (.CUE)
TITLE "Five Compositions (Quartet) 1986"
PERFORMER "Anthony Braxton"
REM GENRE "Jazz"
REM DATE "2011"
REM DISCNUMBER 4
REM TOTALDISCS 6
REM DISCID 3C0A2405
REM REPLAYGAIN_ALBUM_GAIN 0.17 dB
REM REPLAYGAIN_ALBUM_PEAK 0.952881
FILE "01 Composition - No. 131.flac" WAVE
TRACK 01 AUDIO
TITLE "Composition - No. 131"
PERFORMER "Anthony Braxton"
SONGWRITER "Anthony Braxton"
ISRC ITBP71157641
FLAGS DCP
REM REPLAYGAIN_TRACK_GAIN -1.33 dB
REM REPLAYGAIN_TRACK_PEAK 0.952881
INDEX 01 00:00:00
TRACK 02 AUDIO
TITLE "Composition - No. 88 (+ 108C)"
PERFORMER "Anthony Braxton"
SONGWRITER "Anthony Braxton"
ISRC ITBP71157642
FLAGS DCP
REM REPLAYGAIN_TRACK_GAIN 1.55 dB
REM REPLAYGAIN_TRACK_PEAK 0.952850
INDEX 00 07:07:11
FILE "02 Composition - No. 88 (+ 108C).flac" WAVE
INDEX 01 00:00:00
TRACK 03 AUDIO
TITLE "Composition - No. 124 (+ 108D + 96)"
PERFORMER "Anthony Braxton"
SONGWRITER "Anthony Braxton"
ISRC ITBP71157643
FLAGS DCP
REM REPLAYGAIN_TRACK_GAIN 0.34 dB
REM REPLAYGAIN_TRACK_PEAK 0.850647
INDEX 00 05:53:14
FILE "03 Composition - No. 124 (+ 108D + 96).flac" WAVE
INDEX 01 00:00:00
TRACK 04 AUDIO
TITLE "Composition - No. 122 (+ 108 + 96)"
PERFORMER "Anthony Braxton"
SONGWRITER "Anthony Braxton"
ISRC ITBP71157644
FLAGS DCP
REM REPLAYGAIN_TRACK_GAIN 0.27 dB
REM REPLAYGAIN_TRACK_PEAK 0.789490
INDEX 00 09:03:27
FILE "04 Composition - No. 122 (+ 108 + 96).flac" WAVE
INDEX 01 00:00:00
TRACK 05 AUDIO
TITLE "Composition - No. 101 (+ 31 + 86 + 30)"
PERFORMER "Anthony Braxton"
SONGWRITER "Anthony Braxton"
ISRC ITBP71157645
FLAGS DCP
REM REPLAYGAIN_TRACK_GAIN 1.76 dB
REM REPLAYGAIN_TRACK_PEAK 0.952881
INDEX 00 09:29:45
FILE "05 Composition - No. 101 (+ 31 + 86 + 30).flac" WAVE
INDEX 01 00:00:00
 
Лог проверки качества
AUDIOCHECKER v2.0 beta (build 457) - by Dester - opdester@freemail.hu
~~~~~~~~~~~~~~~~~~~~~~~~~~~~~~~~~~
-=== DO NOT EDIT THIS FILE! ===-
Path: ...\Anthony Braxton - Five Compositions (Quartet) 1986 (2011) [FLAC]
01 -=- 01 Composition - No. 131.flac -=- CDDA (100%)
02 -=- 02 Composition - No. 88 (+ 108C).flac -=- CDDA (100%)
03 -=- 03 Composition - No. 124 (+ 108D + 96).flac -=- CDDA (100%)
04 -=- 04 Composition - No. 122 (+ 108 + 96).flac -=- CDDA (100%)
05 -=- 05 Composition - No. 101 (+ 31 + 86 + 30).flac -=- CDDA (100%)
Summary 100,00% CDDA
21313140
 
Состав
Anthony Braxton alto, soprano saxophones
David Rosenboom piano
John Lindberg bass
Gerry Hemingway percussion
 
cd 5 Anthony Braxton - Six Monk's Compositions 1987
Треклист:
1. Brilliant Corners
2. Reflections
3. Played Twice
4. Four In One
5. Ask Me Now
6. Skippy
Milan, Italy, June 30 & July 1, 1987
 
Лог создания рипа
X Lossless Decoder version 20111214 (138.1)
XLD extraction logfile from 2012-01-28 03:53:17 +0000
Anthony Braxton / Six Monk's Compositions
Used drive : HL-DT-ST DVDRW GS23N (revision SB00)
Ripper mode : XLD Secure Ripper
Disable audio cache : OK for the drive with a cache less than 1375KiB
Make use of C2 pointers : NO
Read offset correction : 667
Max retry count : 100
Gap status : Analyzed, Appended (except HTOA)
TOC of the extracted CD
Track | Start | Length | Start sector | End sector
---------------------------------------------------------
1 | 00:00:00 | 09:24:62 | 0 | 42361
2 | 09:24:62 | 04:58:12 | 42362 | 64723
3 | 14:22:74 | 06:51:35 | 64724 | 95583
4 | 21:14:34 | 09:41:20 | 95584 | 139178
5 | 30:55:54 | 06:33:64 | 139179 | 168717
6 | 37:29:43 | 06:43:32 | 168718 | 198974
AccurateRip Summary
Track 01 : OK (confidence 1)
Track 02 : OK (confidence 1)
Track 03 : OK (confidence 1)
Track 04 : OK (confidence 1)
Track 05 : OK (confidence 1)
Track 06 : OK (confidence 1)
->All tracks accurately ripped.
All Tracks
Album gain : -5.95 dB
Peak : 0.952972
Statistics
Read error : 0
Jitter error (maybe fixed) : 0
Retry sector count : 0
Damaged sector count : 0
Track 01
Filename : /Users/cbalma/Desktop/ab/Anthony Braxton - Six Monk's Compositions (1987) [FLAC]/01 Brilliant Corners.flac
Pre-gap length : 00:02:00
Track gain : -5.79 dB
Peak : 0.952972
CRC32 hash (test run) : 177EAEEE
CRC32 hash : 177EAEEE
CRC32 hash (skip zero) : 403B64A3
AccurateRip signature : CAD5F5D7
->Accurately ripped! (confidence 1)
Statistics
Read error : 0
Jitter error (maybe fixed) : 0
Retry sector count : 0
Damaged sector count : 0
Track 02
Filename : /Users/cbalma/Desktop/ab/Anthony Braxton - Six Monk's Compositions (1987) [FLAC]/02 Reflections.flac
Pre-gap length : 00:02:42
Track gain : -5.28 dB
Peak : 0.952942
CRC32 hash (test run) : 9CF71FB4
CRC32 hash : 9CF71FB4
CRC32 hash (skip zero) : FD5D8F5A
AccurateRip signature : D2785028
->Accurately ripped! (confidence 1)
Statistics
Read error : 0
Jitter error (maybe fixed) : 0
Retry sector count : 0
Damaged sector count : 0
Track 03
Filename : /Users/cbalma/Desktop/ab/Anthony Braxton - Six Monk's Compositions (1987) [FLAC]/03 Played Twice.flac
Pre-gap length : 00:02:49
Track gain : -5.93 dB
Peak : 0.952942
CRC32 hash (test run) : 98E59F14
CRC32 hash : 98E59F14
CRC32 hash (skip zero) : 5D1A2EA9
AccurateRip signature : DB19E53C
->Accurately ripped! (confidence 1)
Statistics
Read error : 0
Jitter error (maybe fixed) : 0
Retry sector count : 0
Damaged sector count : 0
Track 04
Filename : /Users/cbalma/Desktop/ab/Anthony Braxton - Six Monk's Compositions (1987) [FLAC]/04 Four In One.flac
Pre-gap length : 00:04:08
Track gain : -6.24 dB
Peak : 0.952942
CRC32 hash (test run) : 3E5BB2C1
CRC32 hash : 3E5BB2C1
CRC32 hash (skip zero) : 882D7DAC
AccurateRip signature : E6A8F16E
->Accurately ripped! (confidence 1)
Statistics
Read error : 0
Jitter error (maybe fixed) : 0
Retry sector count : 0
Damaged sector count : 0
Track 05
Filename : /Users/cbalma/Desktop/ab/Anthony Braxton - Six Monk's Compositions (1987) [FLAC]/05 Ask Me Now.flac
Pre-gap length : 00:03:24
Track gain : -5.39 dB
Peak : 0.952942
CRC32 hash (test run) : 96B6A516
CRC32 hash : 96B6A516
CRC32 hash (skip zero) : CFAD473A
AccurateRip signature : E2FAD726
->Accurately ripped! (confidence 1)
Statistics
Read error : 0
Jitter error (maybe fixed) : 0
Retry sector count : 0
Damaged sector count : 0
Track 06
Filename : /Users/cbalma/Desktop/ab/Anthony Braxton - Six Monk's Compositions (1987) [FLAC]/06 Skippy.flac
Pre-gap length : 00:03:18
Track gain : -6.42 dB
Peak : 0.952942
CRC32 hash (test run) : E3939455
CRC32 hash : E3939455
CRC32 hash (skip zero) : 038288C3
AccurateRip signature : 90E72345
->Accurately ripped! (confidence 1)
Statistics
Read error : 0
Jitter error (maybe fixed) : 0
Retry sector count : 0
Damaged sector count : 0
No errors occurred
End of status report
 
Содержание индексной карты (.CUE)
TITLE "Six Monk's Compositions"
PERFORMER "Anthony Braxton"
REM GENRE "Jazz"
REM DATE "1987"
REM DISCNUMBER 5
REM TOTALDISCS 8
REM DISCID 540A5D06
REM REPLAYGAIN_ALBUM_GAIN -5.95 dB
REM REPLAYGAIN_ALBUM_PEAK 0.952972
FILE "01 Brilliant Corners.flac" WAVE
TRACK 01 AUDIO
TITLE "Brilliant Corners"
PERFORMER "Anthony Braxton"
SONGWRITER "Anthony Braxton"
ISRC ITBP71157594
FLAGS DCP
REM REPLAYGAIN_TRACK_GAIN -5.79 dB
REM REPLAYGAIN_TRACK_PEAK 0.952972
INDEX 01 00:00:00
TRACK 02 AUDIO
TITLE "Reflections"
PERFORMER "Anthony Braxton"
SONGWRITER "Anthony Braxton"
ISRC ITBP71157600
FLAGS DCP
REM REPLAYGAIN_TRACK_GAIN -5.28 dB
REM REPLAYGAIN_TRACK_PEAK 0.952942
INDEX 00 09:22:20
FILE "02 Reflections.flac" WAVE
INDEX 01 00:00:00
TRACK 03 AUDIO
TITLE "Played Twice"
PERFORMER "Anthony Braxton"
SONGWRITER "Anthony Braxton"
ISRC ITBP71157596
FLAGS DCP
REM REPLAYGAIN_TRACK_GAIN -5.93 dB
REM REPLAYGAIN_TRACK_PEAK 0.952942
INDEX 00 04:55:38
FILE "03 Played Twice.flac" WAVE
INDEX 01 00:00:00
TRACK 04 AUDIO
TITLE "Four In One"
PERFORMER "Anthony Braxton"
SONGWRITER "Anthony Braxton"
ISRC ITBP71157597
FLAGS DCP
REM REPLAYGAIN_TRACK_GAIN -6.24 dB
REM REPLAYGAIN_TRACK_PEAK 0.952942
INDEX 00 06:47:27
FILE "04 Four In One.flac" WAVE
INDEX 01 00:00:00
TRACK 05 AUDIO
TITLE "Ask Me Now"
PERFORMER "Anthony Braxton"
SONGWRITER "Anthony Braxton"
ISRC ITBP71157598
FLAGS DCP
REM REPLAYGAIN_TRACK_GAIN -5.39 dB
REM REPLAYGAIN_TRACK_PEAK 0.952942
INDEX 00 09:37:71
FILE "05 Ask Me Now.flac" WAVE
INDEX 01 00:00:00
TRACK 06 AUDIO
TITLE "Skippy"
PERFORMER "Anthony Braxton"
SONGWRITER "Anthony Braxton"
ISRC ITBP71157599
FLAGS DCP
REM REPLAYGAIN_TRACK_GAIN -6.42 dB
REM REPLAYGAIN_TRACK_PEAK 0.952942
INDEX 00 06:30:46
FILE "06 Skippy.flac" WAVE
INDEX 01 00:00:00
 
Лог проверки качества
AUDIOCHECKER v2.0 beta (build 457) - by Dester - opdester@freemail.hu
~~~~~~~~~~~~~~~~~~~~~~~~~~~~~~~~~~
-=== DO NOT EDIT THIS FILE! ===-
Path: ...\Anthony Braxton - Six Monk's Compositions (1987) [FLAC]
01 -=- 01 Brilliant Corners.flac -=- CDDA (100%)
02 -=- 02 Reflections.flac -=- CDDA (100%)
03 -=- 03 Played Twice.flac -=- CDDA (100%)
04 -=- 04 Four In One.flac -=- CDDA (100%)
05 -=- 05 Ask Me Now.flac -=- CDDA (100%)
06 -=- 06 Skippy.flac -=- CDDA (99%)
Summary 99,83% CDDA
222060180
 
Состав
Anthony Braxton alto saxophone
Mal Waldron piano
Buell Neidlinger bass
Bill Osborne drums
не ремастер
 
cd 6 Anthony Braxton - 4 (Ensemble) Compositions 1992
Треклист:
1. Composition Nº 100
2. Composition Nº 96
3. Composition Nº 164
4. Composition Nº 163
New York, December 5, 1992 & March 16, 1993
 
Лог создания рипа
X Lossless Decoder version 20111214 (138.1)
XLD extraction logfile from 2012-01-28 05:03:48 +0000
Anthony Braxton / 4 (Ensemble) Compositions
Used drive : HL-DT-ST DVDRW GS23N (revision SB00)
Ripper mode : XLD Secure Ripper
Disable audio cache : OK for the drive with a cache less than 1375KiB
Make use of C2 pointers : NO
Read offset correction : 667
Max retry count : 100
Gap status : Analyzed, Appended (except HTOA)
TOC of the extracted CD
Track | Start | Length | Start sector | End sector
---------------------------------------------------------
1 | 00:00:00 | 15:40:61 | 0 | 70560
2 | 15:40:61 | 10:15:43 | 70561 | 116728
3 | 25:56:29 | 23:08:73 | 116729 | 220901
4 | 49:05:27 | 24:09:33 | 220902 | 329609
AccurateRip Summary
Track 01 : OK (confidence 1)
Track 02 : OK (confidence 1)
Track 03 : OK (confidence 1)
Track 04 : OK (confidence 1)
->All tracks accurately ripped.
All Tracks
Album gain : -3.87 dB
Peak : 0.952942
Statistics
Read error : 0
Jitter error (maybe fixed) : 0
Retry sector count : 0
Damaged sector count : 0
Track 01
Filename : /Users/cbalma/Desktop/ab/Anthony Braxton - 4 (Ensemble) Compositions (1992) [FLAC]/01 Composition No. 100.flac
Pre-gap length : 00:02:00
Track gain : -3.97 dB
Peak : 0.952942
CRC32 hash (test run) : 23B982D2
CRC32 hash : 23B982D2
CRC32 hash (skip zero) : 3AC8DE7E
AccurateRip signature : 83A78C48
->Accurately ripped! (confidence 1)
Statistics
Read error : 0
Jitter error (maybe fixed) : 0
Retry sector count : 0
Damaged sector count : 0
Track 02
Filename : /Users/cbalma/Desktop/ab/Anthony Braxton - 4 (Ensemble) Compositions (1992) [FLAC]/02 Composition No. 96.flac
Pre-gap length : 00:05:20
Track gain : -4.51 dB
Peak : 0.952911
CRC32 hash (test run) : 63C1AECF
CRC32 hash : 63C1AECF
CRC32 hash (skip zero) : 4DC60386
AccurateRip signature : 30BD50EC
->Accurately ripped! (confidence 1)
Statistics
Read error : 0
Jitter error (maybe fixed) : 0
Retry sector count : 0
Damaged sector count : 0
Track 03
Filename : /Users/cbalma/Desktop/ab/Anthony Braxton - 4 (Ensemble) Compositions (1992) [FLAC]/03 Composition No. 164.flac
Pre-gap length : 00:06:37
Track gain : -3.66 dB
Peak : 0.952911
CRC32 hash (test run) : BE720E40
CRC32 hash : BE720E40
CRC32 hash (skip zero) : 375D8839
AccurateRip signature : AA41DB54
->Accurately ripped! (confidence 1)
Statistics
Read error : 0
Jitter error (maybe fixed) : 0
Retry sector count : 0
Damaged sector count : 0
Track 04
Filename : /Users/cbalma/Desktop/ab/Anthony Braxton - 4 (Ensemble) Compositions (1992) [FLAC]/04 Composition No. 163.flac
Pre-gap length : 00:06:00
Track gain : -3.53 dB
Peak : 0.952942
CRC32 hash (test run) : 99AF5C22
CRC32 hash : 99AF5C22
CRC32 hash (skip zero) : C811E5EC
AccurateRip signature : 89177739
->Accurately ripped! (confidence 1)
Statistics
Read error : 0
Jitter error (maybe fixed) : 0
Retry sector count : 0
Damaged sector count : 0
No errors occurred
End of status report
 
Содержание индексной карты (.CUE)
TITLE "4 (Ensemble) Compositions"
PERFORMER "Anthony Braxton"
REM GENRE "Jazz"
REM DATE "1992"
REM DISCNUMBER 6
REM TOTALDISCS 8
REM DISCID 3A112A04
REM REPLAYGAIN_ALBUM_GAIN -3.87 dB
REM REPLAYGAIN_ALBUM_PEAK 0.952942
FILE "01 Composition No. 100.flac" WAVE
TRACK 01 AUDIO
TITLE "Composition No. 100"
PERFORMER "Anthony Braxton"
SONGWRITER "Anthony Braxton"
ISRC ITBP71157646
FLAGS DCP
REM REPLAYGAIN_TRACK_GAIN -3.97 dB
REM REPLAYGAIN_TRACK_PEAK 0.952942
INDEX 01 00:00:00
TRACK 02 AUDIO
TITLE "Composition No. 96"
PERFORMER "Anthony Braxton"
SONGWRITER "Anthony Braxton"
ISRC ITBP71157647
FLAGS DCP
REM REPLAYGAIN_TRACK_GAIN -4.51 dB
REM REPLAYGAIN_TRACK_PEAK 0.952911
INDEX 00 15:35:41
FILE "02 Composition No. 96.flac" WAVE
INDEX 01 00:00:00
TRACK 03 AUDIO
TITLE "Composition No. 164"
PERFORMER "Anthony Braxton"
SONGWRITER "Anthony Braxton"
ISRC ITBP71157648
FLAGS DCP
REM REPLAYGAIN_TRACK_GAIN -3.66 dB
REM REPLAYGAIN_TRACK_PEAK 0.952911
INDEX 00 10:09:06
FILE "03 Composition No. 164.flac" WAVE
INDEX 01 00:00:00
TRACK 04 AUDIO
TITLE "Composition No. 163"
PERFORMER "Anthony Braxton"
SONGWRITER "Anthony Braxton"
ISRC ITBP71157649
FLAGS DCP
REM REPLAYGAIN_TRACK_GAIN -3.53 dB
REM REPLAYGAIN_TRACK_PEAK 0.952942
INDEX 00 23:02:73
FILE "04 Composition No. 163.flac" WAVE
INDEX 01 00:00:00
 
Лог проверки качества
AUDIOCHECKER v2.0 beta (build 457) - by Dester - opdester@freemail.hu
~~~~~~~~~~~~~~~~~~~~~~~~~~~~~~~~~~
-=== DO NOT EDIT THIS FILE! ===-
Path: ...\Anthony Braxton - 4 (Ensemble) Compositions 1992 [FLAC]
01 -=- 01 Composition No. 100.flac -=- CDDA (100%)
02 -=- 02 Composition No. 96.flac -=- CDDA (99%)
03 -=- 03 Composition No. 164.flac -=- CDDA (100%)
04 -=- 04 Composition No. 163.flac -=- CDDA (100%)
Summary 99,75% CDDA
93409604
 
Состав
Anthony Braxton conductor
Ted Reichman accordion
Guy Klucevek accordion, bodysounds
Don Byron clarinet, bass clarinet
Randy McKean clarinet, alto saxophone, bass clarinet
J.D. Parran - flute, clarinet, bass clarinet, alto clarinet, bamboo flute
Marty Ehrlich flute, clarinet, alto & tenor saxophones, piccolo flute
Jay Hoggard marimba, vibraphone
Amina Claudine Myers organ, voice
Warren Smith percussion
Lynden Achee steel drums
John Rapson trombone
Roland Dahinden trombone
Robert Rumboltz trumpet
не ремастер
 
cd 7 Anthony Braxton with the Northwest Creative Orchestra - Eugene (1989)
Треклист:
1. Composition Nº 112
2. Composition Nº 91
3. Composition Nº 164
4. Composition Nº 134
5. Composition Nº 93
6. Composition Nº 45
7. Composition Nº 71
8. Composition Nº 59
Beal Hall, University of Oregon, Eugene, OR, January 31, 1989
 
Лог создания рипа
X Lossless Decoder version 20111214 (138.1)
XLD extraction logfile from 2012-01-28 02:21:22 +0000
Anthony Braxton / Eugene (1989)
Used drive : HL-DT-ST DVDRW GS23N (revision SB00)
Ripper mode : XLD Secure Ripper
Disable audio cache : OK for the drive with a cache less than 1375KiB
Make use of C2 pointers : NO
Read offset correction : 667
Max retry count : 100
Gap status : Analyzed, Appended (except HTOA)
TOC of the extracted CD
Track | Start | Length | Start sector | End sector
---------------------------------------------------------
1 | 00:00:00 | 10:04:06 | 0 | 45305
2 | 10:04:06 | 09:53:39 | 45306 | 89819
3 | 19:57:45 | 10:47:71 | 89820 | 138415
4 | 30:45:41 | 08:48:71 | 138416 | 178086
5 | 39:34:37 | 08:27:00 | 178087 | 216111
6 | 48:01:37 | 12:55:53 | 216112 | 274289
7 | 60:57:15 | 10:33:20 | 274290 | 321784
8 | 71:30:35 | 08:00:39 | 321785 | 357823
AccurateRip Summary
Track 01 : OK (confidence 1)
Track 02 : OK (confidence 1)
Track 03 : OK (confidence 1)
Track 04 : OK (confidence 1)
Track 05 : OK (confidence 1)
Track 06 : OK (confidence 1)
Track 07 : OK (confidence 1)
Track 08 : OK (confidence 1)
->All tracks accurately ripped.
All Tracks
Album gain : -4.43 dB
Peak : 0.952942
Statistics
Read error : 0
Jitter error (maybe fixed) : 0
Retry sector count : 0
Damaged sector count : 0
Track 01
Filename : /Users/cbalma/Desktop/ab/Anthony Braxton - Eugene (1989) (1991) [FLAC]/01 Composition No. 112.flac
Pre-gap length : 00:02:00
Track gain : -5.11 dB
Peak : 0.952911
CRC32 hash (test run) : 456407A4
CRC32 hash : 456407A4
CRC32 hash (skip zero) : 370228BC
AccurateRip signature : EC77CEE0
->Accurately ripped! (confidence 1)
Statistics
Read error : 0
Jitter error (maybe fixed) : 0
Retry sector count : 0
Damaged sector count : 0
Track 02
Filename : /Users/cbalma/Desktop/ab/Anthony Braxton - Eugene (1989) (1991) [FLAC]/02 Composition No. 91.flac
Track gain : -2.41 dB
Peak : 0.952850
CRC32 hash (test run) : 01A510D1
CRC32 hash : 01A510D1
CRC32 hash (skip zero) : F632557F
AccurateRip signature : 17427C4E
->Accurately ripped! (confidence 1)
Statistics
Read error : 0
Jitter error (maybe fixed) : 0
Retry sector count : 0
Damaged sector count : 0
Track 03
Filename : /Users/cbalma/Desktop/ab/Anthony Braxton - Eugene (1989) (1991) [FLAC]/03 Composition No.134.flac
Track gain : -4.54 dB
Peak : 0.952911
CRC32 hash (test run) : 91CFA7B4
CRC32 hash : 91CFA7B4
CRC32 hash (skip zero) : 7B3083CC
AccurateRip signature : C28A1263
->Accurately ripped! (confidence 1)
Statistics
Read error : 0
Jitter error (maybe fixed) : 0
Retry sector count : 0
Damaged sector count : 0
Track 04
Filename : /Users/cbalma/Desktop/ab/Anthony Braxton - Eugene (1989) (1991) [FLAC]/04 Composition No. 100.flac
Track gain : -1.85 dB
Peak : 0.952850
CRC32 hash (test run) : 53410CCB
CRC32 hash : 53410CCB
CRC32 hash (skip zero) : 445EBF36
AccurateRip signature : 4E96D67F
->Accurately ripped! (confidence 1)
Statistics
Read error : 0
Jitter error (maybe fixed) : 0
Retry sector count : 0
Damaged sector count : 0
Track 05
Filename : /Users/cbalma/Desktop/ab/Anthony Braxton - Eugene (1989) (1991) [FLAC]/05 Composition No. 93.flac
Track gain : -4.29 dB
Peak : 0.952942
CRC32 hash (test run) : 15EB9C07
CRC32 hash : 15EB9C07
CRC32 hash (skip zero) : 9779DD05
AccurateRip signature : 17532B1E
->Accurately ripped! (confidence 1)
Statistics
Read error : 0
Jitter error (maybe fixed) : 0
Retry sector count : 0
Damaged sector count : 0
Track 06
Filename : /Users/cbalma/Desktop/ab/Anthony Braxton - Eugene (1989) (1991) [FLAC]/06 Composition No. 45.flac
Track gain : -3.96 dB
Peak : 0.952911
CRC32 hash (test run) : CBC44D89
CRC32 hash : CBC44D89
CRC32 hash (skip zero) : 8B8A4129
AccurateRip signature : E55BF883
->Accurately ripped! (confidence 1)
Statistics
Read error : 0
Jitter error (maybe fixed) : 0
Retry sector count : 0
Damaged sector count : 0
Track 07
Filename : /Users/cbalma/Deskto
Any questions -> support@pro-jazz.com. По всем вопросам пишите -> support@pro-jazz.com
21:35
216
Нет комментариев. Ваш будет первым!