Вы используете незарегистрированную версию компонента "Вкладки"!

Поиск

(Free Jazz) Cecil Taylor - Chinampas - 2009 (1987), FLAC (tracks) lossless

(Free Jazz) Cecil Taylor - Chinampas - 2009 (1987), FLAC (tracks) lossless
Треклист:
Cecil Taylor / Chinampas
Жанр: Free Jazz
Страна-производитель диска: Великобритания
Год издания диска: 2009 (1987)
Издатель (лейбл): Leo Records
Номер по каталогу: CD LR 153
Страна: США
Аудио кодек: FLAC (*.flac)
Тип рипа: tracks
Битрейт аудио: lossless
Продолжительность: 58:26
Источник (релизер): soulseek (Remi)
Наличие сканов в содержимом раздачи: да
Треклист:
1. # 5'04
2. # 3'43
3. # 5.46
4. # 5'07
5. # 12'30
6. # 9'20
7. # 5'46
8. # 6'56
9. # 3'36
Recorded on 16,17 November 1987 at Doodlehums Studio, London.
 
Лог создания рипа
Exact Audio Copy V0.99 prebeta 5 from 4. May 2009
EAC extraction logfile from 29. June 2010, 18:56
Cecil Taylor / Chinampas
Used drive : HL-DT-STDVD-RAM GH40L Adapter: 1 ID: 1
Read mode : Secure
Utilize accurate stream : Yes
Defeat audio cache : No
Make use of C2 pointers : No
Read offset correction : 667
Overread into Lead-In and Lead-Out : No
Fill up missing offset samples with silence : Yes
Delete leading and trailing silent blocks : No
Null samples used in CRC calculations : No
Used interface : Native Win32 interface for Win NT & 2000
Gap handling : Not detected, thus appended to previous track
Used output format : Internal WAV Routines
Sample format : 44.100 Hz; 16 Bit; Stereo
TOC of the extracted CD
Track | Start | Length | Start sector | End sector
---------------------------------------------------------
1 | 0:00.32 | 5:09.35 | 32 | 23241
2 | 5:09.67 | 3:47.58 | 23242 | 40324
3 | 8:57.50 | 5:50.52 | 40325 | 66626
4 | 14:48.27 | 5:12.03 | 66627 | 90029
5 | 20:00.30 | 12:34.35 | 90030 | 146614
6 | 32:34.65 | 9:24.02 | 146615 | 188916
7 | 41:58.67 | 5:50.13 | 188917 | 215179
8 | 47:49.05 | 7:00.20 | 215180 | 246699
9 | 54:49.25 | 3:36.72 | 246700 | 262971
Track 1
Filename C:\Cecil Taylor - Chinampas\Chinampas - 01 - # 5`04.wav
Peak level 86.6 %
Track quality 99.9 %
Copy CRC 71C781FA
Accurately ripped (confidence 1) [FF5223EB]
Copy OK
Track 2
Filename C:\Cecil Taylor - Chinampas\Chinampas - 02 - # 3`43.wav
Peak level 73.4 %
Track quality 99.9 %
Copy CRC E810F641
Accurately ripped (confidence 1) [C3714CD1]
Copy OK
Track 3
Filename C:\Cecil Taylor - Chinampas\Chinampas - 03 - # 5`46.wav
Peak level 75.3 %
Track quality 100.0 %
Copy CRC 232382D4
Accurately ripped (confidence 1) [5C383BAD]
Copy OK
Track 4
Filename C:\Cecil Taylor - Chinampas\Chinampas - 04 - # 5`07.wav
Peak level 73.6 %
Track quality 100.0 %
Copy CRC 44526FD6
Accurately ripped (confidence 1) [A6D7ADBC]
Copy OK
Track 5
Filename C:\Cecil Taylor - Chinampas\Chinampas - 05 - # 12`30.wav
Peak level 93.7 %
Track quality 100.0 %
Copy CRC FC92CABD
Accurately ripped (confidence 1) [AB8C598A]
Copy OK
Track 6
Filename C:\Cecil Taylor - Chinampas\Chinampas - 06 - # 9`20.wav
Peak level 89.1 %
Track quality 100.0 %
Copy CRC E02F50D4
Accurately ripped (confidence 1) [D72FE68F]
Copy OK
Track 7
Filename C:\Cecil Taylor - Chinampas\Chinampas - 07 - # 5`46.wav
Peak level 81.1 %
Track quality 100.0 %
Copy CRC B8493E21
Accurately ripped (confidence 1) [10237732]
Copy OK
Track 8
Filename C:\Cecil Taylor - Chinampas\Chinampas - 08 - # 6`56.wav
Peak level 99.5 %
Track quality 100.0 %
Copy CRC 2ECC1E88
Accurately ripped (confidence 1) [0B00CB45]
Copy OK
Track 9
Filename C:\Cecil Taylor - Chinampas\Chinampas - 09 - # 3`36.wav
Peak level 67.9 %
Track quality 100.0 %
Copy CRC C1BBF417
Accurately ripped (confidence 1) [429F2A88]
Copy OK
All tracks accurately ripped
No errors occurred
End of status report
 
Лог проверки качества
AUDIOCHECKER v2.0 beta (build 457) - by Dester - opdester@freemail.hu
~~~~~~~~~~~~~~~~~~~~~~~~~~~~~~~~~~
-=== DO NOT EDIT THIS FILE! ===-
Path: ...\cecil taylor - chinampas
1 -=- Chinampas - 01 - # 5`04.flac -=- CDDA (100%)
2 -=- Chinampas - 02 - # 3`43.flac -=- CDDA (100%)
3 -=- Chinampas - 03 - # 5`46.flac -=- CDDA (100%)
4 -=- Chinampas - 04 - # 5`07.flac -=- CDDA (100%)
5 -=- Chinampas - 05 - # 12`30.flac -=- CDDA (100%)
6 -=- Chinampas - 06 - # 9`20.flac -=- CDDA (100%)
7 -=- Chinampas - 07 - # 5`46.flac -=- CDDA (100%)
8 -=- Chinampas - 08 - # 6`56.flac -=- CDDA (100%)
9 -=- Chinampas - 09 - # 3`36.flac -=- CDDA (100%)
Summary 100,00% CDDA
170944628
 
Об альбоме (сборнике)
Этот альбом рекомендуется всем, кому не нравится, как Сесил Тейлор играет на рояле - здесь нет ни одного фортепианного звука.
 
Состав
Cecil Taylor - poetry, voice, tympani, bells, small percussion
Any questions -> support@pro-jazz.com. По всем вопросам пишите -> support@pro-jazz.com
05:07
160
Нет комментариев. Ваш будет первым!