Вы используете незарегистрированную версию компонента "Вкладки"!

Поиск

(Experimental Rock) John Zorn - Ipsissimus - 2010, FLAC (tracks+.cue), lossless

(Experimental Rock) John Zorn - Ipsissimus - 2010, FLAC (tracks+.cue), lossless
Треклист:
John Zorn - Ipsissimus
Жанр: Experimental Rock
Год издания диска: 2010
Лейбл: Tzadik
Аудио кодек: FLAC
Тип рипа: tracks+.cue
Битрейт аудио: lossless
Продолжительность: 49:18
Сканы: нет
Треклист:
01 - Seven Sigils
02 - The Book of Los
03 - Apparitions I
04 - Supplicant
05 - Tabula Smaragdina
06 - Apparitions II
07 - The Changeling
08 - Warlock
09 - Apparitions III
Доп. информация:
Состав:
Joey Baron - drums
Trevor Dunn - bass
Mike Patton - voice
Marc Ribot - guitar
John Zorn - alto sax, piano
 
Об [English]
Weaving sonic dramas around the legacies of Magick and Alchemy, Moonchild is one of Zorn’s most intense and powerful projects. Active since 2006, Moonchild has released four CDs speaking directly to young, open minded and curious music lovers around the world, and their newest recording is the most varied and driving to date. Nine new duos, trios and quartets swirling with melodic and rhythmic invention featuring the searing guitar of Marc Ribot, the magical vocals of Mike Patton and Zorn’s manic sax with the astounding Dunn-Baron rhythm section. Ipsissimus is the fifth surprising installment in the remarkable Moonchild legacy.
http://www.tzadik.com/index.php?catalog=7386
 
Отчёт EAC
Exact Audio Copy V0.99 prebeta 5 from 4. May 2009
EAC extraction logfile from 24. October 2010, 21:44
Unknown Artist / Unknown Title
Used drive : Optiarc DVD RW AD-7560S Adapter: 1 ID: 0
Read mode : Secure
Utilize accurate stream : Yes
Defeat audio cache : Yes
Make use of C2 pointers : No
Read offset correction : 6
Overread into Lead-In and Lead-Out : No
Fill up missing offset samples with silence : Yes
Delete leading and trailing silent blocks : No
Null samples used in CRC calculations : No
Used interface : Native Win32 interface for Win NT & 2000
Gap handling : Appended to previous track
Used output format : User Defined Encoder
Selected bitrate : 768 kBit/s
Quality : High
Add ID3 tag : No
Command line compressor : C:\Program Files\Exact Audio Copy\FLAC\FLAC.EXE
Additional command line options : -6 -V -T "ARTIST=%a" -T "TITLE=%t" -T "ALBUM=%g" -T "DATE=%y" -T "TRACKNUMBER=%n" -T "GENRE=%m" -T "COMMENT=%e" %s -o %d
TOC of the extracted CD
Track | Start | Length | Start sector | End sector
---------------------------------------------------------
1 | 0:00.00 | 6:39.19 | 0 | 29943
2 | 6:39.19 | 8:21.04 | 29944 | 67522
3 | 15:00.23 | 3:44.70 | 67523 | 84392
4 | 18:45.18 | 5:32.46 | 84393 | 109338
5 | 24:17.64 | 6:12.29 | 109339 | 137267
6 | 30:30.18 | 4:09.61 | 137268 | 156003
7 | 34:40.04 | 6:32.01 | 156004 | 185404
8 | 41:12.05 | 4:56.42 | 185405 | 207646
9 | 46:08.47 | 3:10.22 | 207647 | 221918
Track 1
Filename C:\Users\Aaron\Downloads\Ipsissimus\Seven Sigils.wav
Pre-gap length 0:00:02.00
Peak level 96.6 %
Track quality 100.0 %
Test CRC 33B7FD0A
Copy CRC 33B7FD0A
Track not present in AccurateRip database
Copy OK
Track 2
Filename C:\Users\Aaron\Downloads\Ipsissimus\The Book Of Los.wav
Peak level 96.6 %
Track quality 100.0 %
Test CRC D596A3A5
Copy CRC D596A3A5
Track not present in AccurateRip database
Copy OK
Track 3
Filename C:\Users\Aaron\Downloads\Ipsissimus\Apparitions I.wav
Peak level 96.6 %
Track quality 100.0 %
Test CRC 69F1B1B5
Copy CRC 69F1B1B5
Track not present in AccurateRip database
Copy OK
Track 4
Filename C:\Users\Aaron\Downloads\Ipsissimus\Supplicant.wav
Peak level 96.6 %
Track quality 100.0 %
Test CRC 359336FE
Copy CRC 359336FE
Track not present in AccurateRip database
Copy OK
Track 5
Filename C:\Users\Aaron\Downloads\Ipsissimus\Tabula Smaragdina.wav
Peak level 96.6 %
Track quality 100.0 %
Test CRC 95DF4255
Copy CRC 95DF4255
Track not present in AccurateRip database
Copy OK
Track 6
Filename C:\Users\Aaron\Downloads\Ipsissimus\Apparitions II.wav
Peak level 96.6 %
Track quality 100.0 %
Test CRC C22D6014
Copy CRC C22D6014
Track not present in AccurateRip database
Copy OK
Track 7
Filename C:\Users\Aaron\Downloads\Ipsissimus\The Changeling.wav
Peak level 96.6 %
Track quality 100.0 %
Test CRC D53E9AC0
Copy CRC D53E9AC0
Track not present in AccurateRip database
Copy OK
Track 8
Filename C:\Users\Aaron\Downloads\Ipsissimus\Warlock.wav
Peak level 96.6 %
Track quality 100.0 %
Test CRC D45F1E92
Copy CRC D45F1E92
Track not present in AccurateRip database
Copy OK
Track 9
Filename C:\Users\Aaron\Downloads\Ipsissimus\Apparitions III.wav
Peak level 96.6 %
Track quality 99.9 %
Test CRC 7DDB7203
Copy CRC 7DDB7203
Track not present in AccurateRip database
Copy OK
None of the tracks are present in the AccurateRip database
No errors occurred
End of status report
 
Audiochecker
AUDIOCHECKER v2.0 beta (build 457) - by Dester - opdester@freemail.hu
~~~~~~~~~~~~~~~~~~~~~~~~~~~~~~~~~~
-=== DO NOT EDIT THIS FILE! ===-
Path: ...\John Zorn - 2010 - Ipsissimus [FLAC]
1 -=- 01 - Seven Sigils.flac -=- CDDA (100%)
2 -=- 02 - The Book of Los.flac -=- CDDA (100%)
3 -=- 03 - Apparitions I.flac -=- CDDA (100%)
4 -=- 04 - Supplicant.flac -=- CDDA (99%)
5 -=- 05 - Tabula Smaragdina.flac -=- CDDA (100%)
6 -=- 06 - Apparitions II.flac -=- CDDA (100%)
7 -=- 07 - The Changeling.flac -=- CDDA (100%)
8 -=- 08 - Warlock.flac -=- CDDA (100%)
9 -=- 09 - Apparitions III.flac -=- CDDA (100%)
Summary 99.89% CDDA
258990692
 
.cue
REM DISCID 6B0B8E09
REM COMMENT "ExactAudioCopy v0.99pb5"
PERFORMER "John Zorn"
TITLE "Ipsissimus"
FILE "01 - Seven Sigils.wav" WAVE
TRACK 01 AUDIO
TITLE "Seven Sigils"
PERFORMER "John Zorn"
INDEX 01 00:00:00
FILE "02 - The Book of Los.wav" WAVE
TRACK 02 AUDIO
TITLE "The Book of Los"
PERFORMER "John Zorn"
INDEX 01 00:00:00
FILE "03 - Apparitions I.wav" WAVE
TRACK 03 AUDIO
TITLE "Apparitions I"
PERFORMER "John Zorn"
INDEX 01 00:00:00
FILE "04 - Supplicant.wav" WAVE
TRACK 04 AUDIO
TITLE "Supplicant"
PERFORMER "John Zorn"
INDEX 01 00:00:00
FILE "05 - Tabula Smaragdina.wav" WAVE
TRACK 05 AUDIO
TITLE "Tabula Smaragdina"
PERFORMER "John Zorn"
INDEX 01 00:00:00
FILE "06 - Apparitions II.wav" WAVE
TRACK 06 AUDIO
TITLE "Apparitions II"
PERFORMER "John Zorn"
INDEX 01 00:00:00
FILE "07 - The Changeling.wav" WAVE
TRACK 07 AUDIO
TITLE "The Changeling"
PERFORMER "John Zorn"
INDEX 01 00:00:00
FILE "08 - Warlock.wav" WAVE
TRACK 08 AUDIO
TITLE "Warlock"
PERFORMER "John Zorn"
INDEX 01 00:00:00
FILE "09 - Apparitions III.wav" WAVE
TRACK 09 AUDIO
TITLE "Apparitions III"
PERFORMER "John Zorn"
INDEX 01 00:00:00
Источник:

Риппер: aaron11001
Any questions -> support@pro-jazz.com. По всем вопросам пишите -> support@pro-jazz.com
05:06
244
Нет комментариев. Ваш будет первым!