Вы используете незарегистрированную версию компонента "Вкладки"!

Поиск

(Avant-Garde / Modern Creative / 482 Music) Sticks and Stones - Sticks and Stones - 2002, FLAC (image+.cue) lossless

(Avant-Garde / Modern Creative / 482 Music) Sticks and Stones - Sticks and Stones - 2002, FLAC (image+.cue) lossless
Треклист:
Sticks and Stones - Sticks and Stones

Жанр: Avant-Garde / Modern Creative
Страна-производитель диска: USA
Год издания диска: 2002
Издатель (лейбл): 482 Music 1012
Аудио кодек: FLAC (*.flac)
Тип рипа: image+.cue
Битрейт аудио: lossless
Продолжительность: 49:33
Источник (релизер): собственный рип
Наличие сканов в содержимом раздачи: нет
Matana Roberts: alto saxophone, clarinet, percussion
Josh Abrams: bass
Chad Taylor: drums, percussion
1. Turning the Mark
2. Equally Strong
3. Lose My Number
4. Suhasani
5. End of the Game
6. Usetosay
7. Sons of Slaves
8. Hannibul
9. Spaces
10. Salvador
11. Spicer
 
Лог создания рипа
Exact Audio Copy V0.99 prebeta 5 from 4. May 2009
EAC extraction logfile from 18. February 2010, 18:25
Sticks and Stones / Sticks and Stones
Used drive : hp DVD-RAM GH40L Adapter: 0 ID: 1
Read mode : Secure
Utilize accurate stream : Yes
Defeat audio cache : Yes
Make use of C2 pointers : No
Read offset correction : 667
Overread into Lead-In and Lead-Out : No
Fill up missing offset samples with silence : Yes
Delete leading and trailing silent blocks : No
Null samples used in CRC calculations : Yes
Used interface : Installed external ASPI interface
Used output format : User Defined Encoder
Selected bitrate : 1024 kBit/s
Quality : High
Add ID3 tag : No
Command line compressor : C:\Program Files\Exact Audio Copy\Flac\flac.exe
Additional command line options : -6 -V -T "ARTIST=%a" -T "TITLE=%t" -T "ALBUM=%g" -T "DATE=%y" -T "TRACKNUMBER=%n" -T "GENRE=%m" -T "COMMENT=EAC FLAC -6" %s
TOC of the extracted CD
Track | Start | Length | Start sector | End sector
---------------------------------------------------------
1 | 0:00.00 | 5:22.28 | 0 | 24177
2 | 5:22.28 | 4:43.61 | 24178 | 45463
3 | 10:06.14 | 5:17.02 | 45464 | 69240
4 | 15:23.16 | 3:16.00 | 69241 | 83940
5 | 18:39.16 | 4:56.65 | 83941 | 106205
6 | 23:36.06 | 3:31.35 | 106206 | 122065
7 | 27:07.41 | 4:44.22 | 122066 | 143387
8 | 31:51.63 | 6:58.59 | 143388 | 174796
9 | 38:50.47 | 3:08.14 | 174797 | 188910
10 | 41:58.61 | 3:49.59 | 188911 | 206144
11 | 45:48.45 | 3:43.71 | 206145 | 222940
Range status and errors
Selected range
Filename C:\Users\Igor\Music\eac\Sticks and Stones - Sticks and Stones.wav
Peak level 100.0 %
Range quality 100.0 %
Test CRC 0F1E71E7
Copy CRC 0F1E71E7
Copy OK
No errors occurred
AccurateRip summary
Track 1 not present in database
Track 2 not present in database
Track 3 not present in database
Track 4 not present in database
Track 5 not present in database
Track 6 not present in database
Track 7 not present in database
Track 8 not present in database
Track 9 not present in database
Track 10 not present in database
Track 11 not present in database
None of the tracks are present in the AccurateRip database
End of status report

Sticks and Stones - Shed Grace (2004)
Any questions -> support@pro-jazz.com. По всем вопросам пишите -> support@pro-jazz.com
05:08
185
Нет комментариев. Ваш будет первым!