Вы используете незарегистрированную версию компонента "Вкладки"!

Поиск

(Free Jazz) [CD] Witches & Devils (Ken Vandermark, Mars Williams, Jim Baker, Fred Lonberg-Holm, Kent Kessler, Steve Hunt) - Empty Bottle Chicago - 2000, FLAC (tracks+.cue), lossless

(Free Jazz) [CD] Witches & Devils (Ken Vandermark, Mars Williams, Jim Baker, Fred Lonberg-Holm, Kent Kessler, Steve Hunt) - Empty Bottle Chicago - 2000, FLAC (tracks+.cue), lossless
Треклист:
Witches & Devils / Empty Bottle Chicago
Жанр: Free Jazz
Носитель: CD
Страна-производитель диска: US
Год издания: 2000
Издатель (лейбл): Knitting Factory Records
Номер по каталогу: KFW-282
Аудиокодек: FLAC (*.flac)
Тип рипа: tracks+.cue
Битрейт аудио: lossless
Продолжительность: 41:43
Источник (релизер): CD
Наличие сканов в содержимом раздачи: нет
Треклист:
1. Truth Is Marching In 12:05
(Written-By – Albert Ayler)
2. Sax Duet / Piano Interlude 7:36
(Written-By – Jim Baker, Ken Vandermark, Mars Williams)
3. Angels 6:06
(Written-By – Albert Ayler)
4. Bells 15:56
(Written-By – Albert Ayler)
 
Лог создания рипа
Exact Audio Copy V1.0 beta 3 from 29. August 2011
EAC extraction logfile from 9. February 2015, 9:20
Witches & Devils / Empty Bottle Chicago
Used drive : ASUS DRW-24F1ST a Adapter: 0 ID: 0
Read mode : Secure
Utilize accurate stream : Yes
Defeat audio cache : Yes
Make use of C2 pointers : No
Read offset correction : 6
Overread into Lead-In and Lead-Out : No
Fill up missing offset samples with silence : Yes
Delete leading and trailing silent blocks : No
Null samples used in CRC calculations : Yes
Used interface : Native Win32 interface for Win NT & 2000
Gap handling : Appended to previous track
Used output format : User Defined Encoder
Selected bitrate : 320 kBit/s
Quality : High
Add ID3 tag : No
Command line compressor : D:\Programs\Exact Audio Copy\Flac\flac.exe
Additional command line options : -V -8 -T "Genre=%genre%" -T "Artist=%artist%" -T "Title=%title%" -T "Album=%albumtitle%" -T "Date=%year%" -T "Tracknumber=%tracknr%" -T "Comment=%comment%" %source%
TOC of the extracted CD
Track | Start | Length | Start sector | End sector
---------------------------------------------------------
1 | 0:00.00 | 12:05.28 | 0 | 54402
2 | 12:05.28 | 7:35.55 | 54403 | 88582
3 | 19:41.08 | 6:05.71 | 88583 | 116028
4 | 25:47.04 | 15:56.20 | 116029 | 187748
Track 1
Filename D:\EAC\01 Truth is Marching in.wav
Pre-gap length 0:00:02.00
Peak level 94.5 %
Extraction speed 5.0 X
Track quality 99.9 %
Test CRC DAAF1B33
Copy CRC DAAF1B33
Copy OK
Track 2
Filename D:\EAC\02 Sax Duet , Piano Interlude.wav
Peak level 97.9 %
Extraction speed 6.2 X
Track quality 100.0 %
Test CRC 97CD53BE
Copy CRC 97CD53BE
Copy OK
Track 3
Filename D:\EAC\03 Angels.wav
Peak level 93.5 %
Extraction speed 6.7 X
Track quality 100.0 %
Test CRC 512CF014
Copy CRC 512CF014
Copy OK
Track 4
Filename D:\EAC\04 Bells.wav
Peak level 99.6 %
Extraction speed 8.0 X
Track quality 100.0 %
Test CRC 01BB851A
Copy CRC 01BB851A
Copy OK
No errors occurred
End of status report
==== Log checksum E8F4AA8B771A410E66338C806A77E30399A51BA74A6DD5E7FB45F8D10BD4E2EC ====
 
Содержание индексной карты (.CUE)
REM GENRE Jazz
REM DATE 2000
REM DISCID 3209C704
REM COMMENT "ExactAudioCopy v1.0b3"
PERFORMER "Witches & Devils"
TITLE "Empty Bottle Chicago"
FILE "01 Truth is Marching in.wav" WAVE
TRACK 01 AUDIO
TITLE "Truth is Marching in"
PERFORMER "Witches & Devils"
INDEX 01 00:00:00
FILE "02 Sax Duet , Piano Interlude.wav" WAVE
TRACK 02 AUDIO
TITLE "Sax Duet / Piano Interlude"
PERFORMER "Witches & Devils"
INDEX 01 00:00:00
FILE "03 Angels.wav" WAVE
TRACK 03 AUDIO
TITLE "Angels"
PERFORMER "Witches & Devils"
INDEX 01 00:00:00
FILE "04 Bells.wav" WAVE
TRACK 04 AUDIO
TITLE "Bells"
PERFORMER "Witches & Devils"
INDEX 01 00:00:00
Доп. информация: Title of release on back is "Witches And Devils At The Empty Bottle", subtitled Chicago, 27 August 1997 Set 2.
 
Состав
Bass – Kent Kessler
Cello – Fredrick Lonberg-holm
Drums – Steve Hunt
Keyboards – Jim Baker
Reeds – Ken Vandermark, Mars Williams
По всем вопросам пишите личное сообщение пользователю M0p94ok.
06:44
133
Нет комментариев. Ваш будет первым!