Вы используете незарегистрированную версию компонента "Вкладки"!

Поиск

(Avant-Garde Jazz, Free Improvisation) [CD] Anthony Braxton - Composition 113 (for one soloist, a large photograph, and prepared stage) - 1983 (1991), FLAC (tracks+.cue), lossless

(Avant-Garde Jazz, Free Improvisation) [CD] Anthony Braxton - Composition 113 (for one soloist, a large photograph, and prepared stage) - 1983 (1991), FLAC (tracks+.cue), lossless
Треклист:
Anthony Braxton - Composition 113 (for one soloist, a large photograph, and prepared stage)
Жанр: Avant-Garde Jazz, Free Improvisation
Носитель: CD
Страна-производитель диска: Германия
Год издания: 1991
Издатель (лейбл): Sound Aspects Records
Номер по каталогу: SAS CD 003
Аудиокодек: FLAC (*.flac)
Тип рипа: tracks+.cue
Битрейт аудио: lossless
Продолжительность: 38:12
Источник (релизер): flavius (what)
Наличие сканов в содержимом раздачи: да
Треклист:
01. Section 1 (7:54)
02. Section 2 (7:37)
03. Section 3 (5:20)
04. Section 4 (6:54)
05. Section 5 (5:41)
06. Section 6 (4:46)
Состав:
Anthony Braxton - Eb soprano saxophone
Composition by Antony Braxton.
Recorded at Tonstudio Zuckerfabrik, Stuttgart, West Germany on December 6, 1983.
 
Лог создания рипа
Exact Audio Copy V1.0 beta 3 from 29. August 2011
EAC extraction logfile from 28. November 2014, 10:45
Anthony Braxton / Composition 113
Used drive : TSSTcorpCD/DVDW SH-S182M Adapter: 2 ID: 0
Read mode : Secure
Utilize accurate stream : Yes
Defeat audio cache : Yes
Make use of C2 pointers : No
Read offset correction : 6
Overread into Lead-In and Lead-Out : No
Fill up missing offset samples with silence : Yes
Delete leading and trailing silent blocks : No
Null samples used in CRC calculations : Yes
Used interface : Installed external ASPI interface
Gap handling : Appended to previous track
Used output format : User Defined Encoder
Selected bitrate : 1024 kBit/s
Quality : High
Add ID3 tag : No
Command line compressor : C:\Program Files\eac-1.0beta3\FLAC\FLAC.EXE
Additional command line options : -8 -V -T "ARTIST=%artist%" -T "TITLE=%title%" -T "ALBUM=%albumtitle%" -T "DATE=%year%" -T "TRACKNUMBER=%tracknr%" -T "GENRE=%genre%" -T "PERFORMER=%albuminterpret%" -T "COMPOSER=%composer%" %haslyrics%--tag-from-file=LYRICS="%lyricsfile%"%haslyrics% -T "ALBUMARTIST=%albumartist%" -T "ALBUM ARTIST=%albumartist%" -T "DISCNUMBER=%cdnumber%" -T "TOTALDISCS=%totalcds%" -T "TOTALTRACKS=%numtracks%" -T "COMMENT=ivo" %source% -o %dest%
TOC of the extracted CD
Track | Start | Length | Start sector | End sector
---------------------------------------------------------
1 | 0:00.00 | 7:54.25 | 0 | 35574
2 | 7:54.25 | 7:37.32 | 35575 | 69881
3 | 15:31.57 | 5:20.03 | 69882 | 93884
4 | 20:51.60 | 6:54.25 | 93885 | 124959
5 | 27:46.10 | 5:40.55 | 124960 | 150514
6 | 33:26.65 | 4:46.22 | 150515 | 171986
Track 1
Filename F:\eac\01 - Section 1.wav
Pre-gap length 0:00:02.00
Peak level 96.3 %
Extraction speed 4.7 X
Track quality 100.0 %
Test CRC 0E07353E
Copy CRC 0E07353E
Accurately ripped (confidence 1) [6A15E879] (AR v2)
Copy OK
Track 2
Filename F:\eac\02 - Section 2.wav
Pre-gap length 0:00:06.06
Peak level 77.2 %
Extraction speed 5.6 X
Track quality 100.0 %
Test CRC AE76AAD7
Copy CRC AE76AAD7
Accurately ripped (confidence 1) [3700A018] (AR v2)
Copy OK
Track 3
Filename F:\eac\03 - Section 3.wav
Pre-gap length 0:00:07.16
Peak level 100.0 %
Extraction speed 5.4 X
Track quality 99.9 %
Test CRC 62D7C076
Copy CRC 62D7C076
Accurately ripped (confidence 1) [99D6D18F] (AR v2)
Copy OK
Track 4
Filename F:\eac\04 - Section 4.wav
Pre-gap length 0:00:11.80
Peak level 84.4 %
Extraction speed 6.1 X
Track quality 99.9 %
Test CRC EF6F3B38
Copy CRC EF6F3B38
Accurately ripped (confidence 1) [20B39C58] (AR v2)
Copy OK
Track 5
Filename F:\eac\05 - Section 5.wav
Pre-gap length 0:00:05.38
Peak level 85.3 %
Extraction speed 7.0 X
Track quality 100.0 %
Test CRC B63506F8
Copy CRC B63506F8
Accurately ripped (confidence 1) [5AAF1DCE] (AR v2)
Copy OK
Track 6
Filename F:\eac\06 - Section 6.wav
Pre-gap length 0:00:05.90
Peak level 97.1 %
Extraction speed 7.2 X
Track quality 100.0 %
Test CRC A7024167
Copy CRC A7024167
Accurately ripped (confidence 1) [6F8BE9DF] (AR v2)
Copy OK
All tracks accurately ripped
No errors occurred
End of status report
---- CUETools DB Plugin V2.1.4
[CTDB TOCID: 3ox2_hesmNrrXfInSpEZ0lSjKto-] found
Submit result: already submitted
Track | CTDB Status
1 | (2/2) Accurately ripped
2 | (2/2) Accurately ripped
3 | (2/2) Accurately ripped
4 | (2/2) Accurately ripped
5 | (2/2) Accurately ripped
6 | (2/2) Accurately ripped
==== Log checksum BB1ED7B8B6FE91F91F071738BC93E2F73BF0CA09BD7666008E4A5E448B7C2973 ====
 
Содержание индексной карты (.CUE)
REM GENRE Jazz
REM DATE 1983
REM DISCID 4C08F506
REM COMMENT "ExactAudioCopy v1.0b3"
PERFORMER "Anthony Braxton"
TITLE "Composition 113"
FILE "01 - Section 1.wav" WAVE
TRACK 01 AUDIO
TITLE "Section 1"
PERFORMER "Anthony Braxton"
INDEX 01 00:00:00
TRACK 02 AUDIO
TITLE "Section 2"
PERFORMER "Anthony Braxton"
INDEX 00 07:48:20
FILE "02 - Section 2.wav" WAVE
INDEX 01 00:00:00
TRACK 03 AUDIO
TITLE "Section 3"
PERFORMER "Anthony Braxton"
INDEX 00 07:30:20
FILE "03 - Section 3.wav" WAVE
INDEX 01 00:00:00
TRACK 04 AUDIO
TITLE "Section 4"
PERFORMER "Anthony Braxton"
INDEX 00 05:08:18
FILE "04 - Section 4.wav" WAVE
INDEX 01 00:00:00
TRACK 05 AUDIO
TITLE "Section 5"
PERFORMER "Anthony Braxton"
INDEX 00 06:48:71
FILE "05 - Section 5.wav" WAVE
INDEX 01 00:00:00
TRACK 06 AUDIO
TITLE "Section 6"
PERFORMER "Anthony Braxton"
INDEX 00 05:34:62
FILE "06 - Section 6.wav" WAVE
INDEX 01 00:00:00
 
Отчет CUETools
[CUETools log; Date: 02.12.2014 0:27:42; Version: 2.1.5]
[CTDB TOCID: 3ox2_hesmNrrXfInSpEZ0lSjKto-] found.
Track | CTDB Status
1 | (2/2) Accurately ripped
2 | (2/2) Accurately ripped
3 | (2/2) Accurately ripped
4 | (2/2) Accurately ripped
5 | (2/2) Accurately ripped
6 | (2/2) Accurately ripped
[AccurateRip ID: 0009de94-0033b2e8-4c08f506] found.
Track [ CRC | V2 ] Status
01 [06993480|6a15e879] (1+1/2) Accurately ripped
02 [d7e17e49|3700a018] (1+1/2) Accurately ripped
03 [f4344950|99d6d18f] (1+1/2) Accurately ripped
04 [2de861cd|20b39c58] (1+1/2) Accurately ripped
05 [509fcf01|5aaf1dce] (1+1/2) Accurately ripped
06 [77ec15c5|6f8be9df] (1+1/2) Accurately ripped
Track Peak [ CRC32 ] [W/O NULL] [ LOG ]
-- 100,0 [CF0C8F80] [D3ADB2C9]
01 96,3 [0E07353E] [89A2BA99] CRC32
02 77,2 [AE76AAD7] [75D68D2B] CRC32
03 100,0 [62D7C076] [D6FD56D1] CRC32
04 84,4 [EF6F3B38] [EFE5F4F5] CRC32
05 85,3 [B63506F8] [B25D2E02] CRC32
06 97,1 [A7024167] [7509807F] CRC32
 
Review by Brian Olewnick
Composition 113 is an early recorded example of Braxton's "ritual" music; a dramatic, storytelling piece that, when performed live, involved specific staging instructions and visual accompaniment. The album is in six sections, representing six characters, each with a certain sound strategy/character tendency: humor, acceptance, strength, dependability, courage, and belief. As much as this information may provide an interesting background to the work, one listening to the record is left simply with six stunning solo performances by Braxton on soprano saxophone. While he has recorded numerous solo excursions on alto, this is the only time he devoted an entire release to solo soprano and one could only wish for more. His command of the instrument is astonishing; whether dancing agilely over airy and intricate themes or crying with impassioned sorrow, Braxton plays at a level commensurate with acknowledged masters of this ornery horn such as Steve Lacy. But all his technical mastery is subsumed in the service of the composition and that is the real joy of this work. Each section has a distinct character and one really gets the impression of accurate, deep portraits of individual persona relating their stories.
Composition 113 is not nearly as forbidding or difficult as one might guess at first blush, given its ascetic instrumentation. Braxton's tone is rich and luscious throughout and he freely draws on both blues and romanticism, making this one of his more accessible solo forays. Highly recommended.
По всем вопросам пишите личное сообщение пользователю M0p94ok.
06:43
248
Нет комментариев. Ваш будет первым!