Вы используете незарегистрированную версию компонента "Вкладки"!

Поиск

(Free Jazz, Rock, Soundtrack) [CD] Parallax Ensemble (Ken Vandermark, Jason Adasiewicz, Nate Wooley, Steve Albini, David Grubbs a.o.) - Parallax Sounds - 2014, FLAC (tracks+.cue), lossless

(Free Jazz, Rock, Soundtrack) [CD] Parallax Ensemble (Ken Vandermark, Jason Adasiewicz, Nate Wooley, Steve Albini, David Grubbs a.o.) - Parallax Sounds - 2014, FLAC (tracks+.cue), lossless
Треклист:
PARALLAX SOUNDS Жанр: Free Jazz, Rock, Soundtrack
Страна-производитель диска: USA
Год издания: 2014
Издатель (лейбл): Just Temptation Recordings
Номер по каталогу: JT009
Аудиокодек: FLAC (*.flac)
Тип рипа: tracks+.cue
Битрейт аудио: lossless
Продолжительность: 60:19
Источник (релизер): спасибо 6060842
Наличие сканов в содержимом раздачи: нет
Треклист:
01. Intro
02.Out With The Tide
03. Nowhere Is The Place
04. Photographed Laughing
05. Invisible Road
06. Soundible Bells
07. Tomorrow Is The Past (Part One)
08. Crystal City (Part One)
09. Lady Loop
10. Air Steps
11. Tomorrow Is The Past (Part Two)
12. Parallax Game
13. Crystal City (Part Two)
 
Лог создания рипа
X Lossless Decoder version 20141109 (148.0)
XLD extraction logfile from 2014-11-29 12:35:51 +0300
Parallax Ensemble / Parallax Sounds
Used drive : HL-DT-ST DVDRW GX30N (revision RP09)
Media type : Pressed CD
Ripper mode : XLD Secure Ripper
Disable audio cache : OK for the drive with a cache less than 1375KiB
Make use of C2 pointers : NO
Read offset correction : 6
Max retry count : 10000
Gap status : Analyzed, Appended (except HTOA)
TOC of the extracted CD
Track | Start | Length | Start sector | End sector
---------------------------------------------------------
1 | 00:00:00 | 01:48:64 | 0 | 8163
2 | 01:48:64 | 02:30:53 | 8164 | 19466
3 | 04:19:42 | 07:58:53 | 19467 | 55369
4 | 12:18:20 | 03:55:40 | 55370 | 73034
5 | 16:13:60 | 04:59:10 | 73035 | 95469
6 | 21:12:70 | 02:28:33 | 95470 | 106602
7 | 23:41:28 | 05:25:51 | 106603 | 131028
8 | 29:07:04 | 06:53:06 | 131029 | 162009
9 | 36:00:10 | 10:16:56 | 162010 | 208265
10 | 46:16:66 | 02:06:71 | 208266 | 217786
11 | 48:23:62 | 05:39:05 | 217787 | 243216
12 | 54:02:67 | 04:28:57 | 243217 | 263373
13 | 58:31:49 | 02:10:08 | 263374 | 273131
AccurateRip Summary
Disc not found in AccurateRip DB.
All Tracks
Album gain : -8.80 dB
Peak : 0.965424
Statistics
Read error : 0
Jitter error (maybe fixed) : 0
Retry sector count : 0
Damaged sector count : 0
Track 01
Filename : /Users/Shared/Grabbed/Parallax Ensemble - 2013 - Parallax Sounds [FLAC]/01 - Intro.flac
Pre-gap length : 00:02:00
Track gain : -9.04 dB
Peak : 0.914215
CRC32 hash (test run) : 69553D4C
CRC32 hash : 69553D4C
CRC32 hash (skip zero) : 7D0B98BF
AccurateRip v1 signature : 61709943
AccurateRip v2 signature : 4FECD056
->Track not present in AccurateRip database.
Statistics
Read error : 0
Jitter error (maybe fixed) : 0
Retry sector count : 0
Damaged sector count : 0
Track 02
Filename : /Users/Shared/Grabbed/Parallax Ensemble - 2013 - Parallax Sounds [FLAC]/02 - Out with the Tide.flac
Track gain : -8.78 dB
Peak : 0.962982
CRC32 hash (test run) : F07E2CA2
CRC32 hash : F07E2CA2
CRC32 hash (skip zero) : 55437799
AccurateRip v1 signature : A3CBD049
AccurateRip v2 signature : E2231A65
->Track not present in AccurateRip database.
Statistics
Read error : 0
Jitter error (maybe fixed) : 0
Retry sector count : 0
Damaged sector count : 0
Track 03
Filename : /Users/Shared/Grabbed/Parallax Ensemble - 2013 - Parallax Sounds [FLAC]/03 - Nowhere is the Place.flac
Pre-gap length : 00:02:00
Track gain : -9.31 dB
Peak : 0.960297
CRC32 hash (test run) : B2B24363
CRC32 hash : B2B24363
CRC32 hash (skip zero) : 709127E6
AccurateRip v1 signature : C4A66C37
AccurateRip v2 signature : 253792E7
->Track not present in AccurateRip database.
Statistics
Read error : 0
Jitter error (maybe fixed) : 0
Retry sector count : 0
Damaged sector count : 0
Track 04
Filename : /Users/Shared/Grabbed/Parallax Ensemble - 2013 - Parallax Sounds [FLAC]/04 - Photographed Laughing.flac
Pre-gap length : 00:02:00
Track gain : -7.94 dB
Peak : 0.945831
CRC32 hash (test run) : ADCEAA9D
CRC32 hash : ADCEAA9D
CRC32 hash (skip zero) : 27F692B4
AccurateRip v1 signature : 50275D13
AccurateRip v2 signature : A348B713
->Track not present in AccurateRip database.
Statistics
Read error : 0
Jitter error (maybe fixed) : 0
Retry sector count : 0
Damaged sector count : 0
Track 05
Filename : /Users/Shared/Grabbed/Parallax Ensemble - 2013 - Parallax Sounds [FLAC]/05 - Invisible Road.flac
Pre-gap length : 00:02:00
Track gain : -8.46 dB
Peak : 0.959137
CRC32 hash (test run) : 8B3CAB30
CRC32 hash : 8B3CAB30
CRC32 hash (skip zero) : 3ED38BF1
AccurateRip v1 signature : F0CF278B
AccurateRip v2 signature : CD96050F
->Track not present in AccurateRip database.
Statistics
Read error : 0
Jitter error (maybe fixed) : 0
Retry sector count : 0
Damaged sector count : 0
Track 06
Filename : /Users/Shared/Grabbed/Parallax Ensemble - 2013 - Parallax Sounds [FLAC]/06 - Soundible Bells.flac
Pre-gap length : 00:02:00
Track gain : -3.45 dB
Peak : 0.730042
CRC32 hash (test run) : C14BD692
CRC32 hash : C14BD692
CRC32 hash (skip zero) : C748EA46
AccurateRip v1 signature : 5A8C63D4
AccurateRip v2 signature : 4622673A
->Track not present in AccurateRip database.
Statistics
Read error : 0
Jitter error (maybe fixed) : 0
Retry sector count : 0
Damaged sector count : 0
Track 07
Filename : /Users/Shared/Grabbed/Parallax Ensemble - 2013 - Parallax Sounds [FLAC]/07 - Tomorrow is the Past #1.flac
Pre-gap length : 00:02:00
Track gain : -7.89 dB
Peak : 0.955017
CRC32 hash (test run) : D46DEBDB
CRC32 hash : D46DEBDB
CRC32 hash (skip zero) : B82E0735
AccurateRip v1 signature : 55C135F7
AccurateRip v2 signature : C5BAD69C
->Track not present in AccurateRip database.
Statistics
Read error : 0
Jitter error (maybe fixed) : 0
Retry sector count : 0
Damaged sector count : 0
Track 08
Filename : /Users/Shared/Grabbed/Parallax Ensemble - 2013 - Parallax Sounds [FLAC]/08 - Chrystal City #1.flac
Pre-gap length : 00:02:00
Track gain : -7.61 dB
Peak : 0.954742
CRC32 hash (test run) : F16B40D5
CRC32 hash : F16B40D5
CRC32 hash (skip zero) : 1377588F
AccurateRip v1 signature : C8D74B3C
AccurateRip v2 signature : 5CE52B59
->Track not present in AccurateRip database.
Statistics
Read error : 0
Jitter error (maybe fixed) : 0
Retry sector count : 0
Damaged sector count : 0
Track 09
Filename : /Users/Shared/Grabbed/Parallax Ensemble - 2013 - Parallax Sounds [FLAC]/09 - Lady Loop.flac
Pre-gap length : 00:02:00
Track gain : -9.03 dB
Peak : 0.965424
CRC32 hash (test run) : 030EBD10
CRC32 hash : 030EBD10
CRC32 hash (skip zero) : B807C8B3
AccurateRip v1 signature : 2BE1100C
AccurateRip v2 signature : 4A2FABB6
->Track not present in AccurateRip database.
Statistics
Read error : 0
Jitter error (maybe fixed) : 0
Retry sector count : 0
Damaged sector count : 0
Track 10
Filename : /Users/Shared/Grabbed/Parallax Ensemble - 2013 - Parallax Sounds [FLAC]/10 - Air Steps.flac
Pre-gap length : 00:02:00
Track gain : -10.50 dB
Peak : 0.943115
CRC32 hash (test run) : 68014BEB
CRC32 hash : 68014BEB
CRC32 hash (skip zero) : 936FEC1D
AccurateRip v1 signature : 4F6C343F
AccurateRip v2 signature : C9F0C778
->Track not present in AccurateRip database.
Statistics
Read error : 0
Jitter error (maybe fixed) : 0
Retry sector count : 0
Damaged sector count : 0
Track 11
Filename : /Users/Shared/Grabbed/Parallax Ensemble - 2013 - Parallax Sounds [FLAC]/11 - Tomorrow is the Past #2.flac
Pre-gap length : 00:02:00
Track gain : -9.00 dB
Peak : 0.960266
CRC32 hash (test run) : 0806CF7C
CRC32 hash : 0806CF7C
CRC32 hash (skip zero) : 0F459772
AccurateRip v1 signature : 08E51DD6
AccurateRip v2 signature : 5363ABD4
->Track not present in AccurateRip database.
Statistics
Read error : 0
Jitter error (maybe fixed) : 0
Retry sector count : 0
Damaged sector count : 0
Track 12
Filename : /Users/Shared/Grabbed/Parallax Ensemble - 2013 - Parallax Sounds [FLAC]/12 - Parallax Game.flac
Pre-gap length : 00:02:00
Track gain : -6.63 dB
Peak : 0.911530
CRC32 hash (test run) : 7CE756E1
CRC32 hash : 7CE756E1
CRC32 hash (skip zero) : C1B77152
AccurateRip v1 signature : F08B40B1
AccurateRip v2 signature : A2CC8FC5
->Track not present in AccurateRip database.
Statistics
Read error : 0
Jitter error (maybe fixed) : 0
Retry sector count : 0
Damaged sector count : 0
Track 13
Filename : /Users/Shared/Grabbed/Parallax Ensemble - 2013 - Parallax Sounds [FLAC]/13 - Chrystal City #2.flac
Pre-gap length : 00:02:00
Track gain : -9.55 dB
Peak : 0.955536
CRC32 hash (test run) : 4ADB2591
CRC32 hash : 4ADB2591
CRC32 hash (skip zero) : 6A07AF99
AccurateRip v1 signature : A8B575DD
AccurateRip v2 signature : 74B6A4C8
->Track not present in AccurateRip database.
Statistics
Read error : 0
Jitter error (maybe fixed) : 0
Retry sector count : 0
Damaged sector count : 0
No errors occurred
End of status report
-----BEGIN XLD SIGNATURE-----
raFSnO1A7gyHLqwxj3_6deSIENQ3e4h6OYEM02odd32rsnooRqzV73tliCvQ2Pe9yEaPldEjhokQwBqs2TRLF9bC3gJ4xnod4GTWQJy
-----END XLD SIGNATURE-----
 
Содержание индексной карты (.CUE)
TITLE "Parallax Sounds"
PERFORMER "Parallax Ensemble"
REM GENRE "Free Jazz"
REM DATE "2013"
REM DISCNUMBER 1
REM TOTALDISCS 1
REM DISCID A60E390D
REM REPLAYGAIN_ALBUM_GAIN -8.80 dB
REM REPLAYGAIN_ALBUM_PEAK 0.965424
REM COMPILATION TRUE
FILE "01 - Intro.flac" WAVE
TRACK 01 AUDIO
TITLE "Intro"
PERFORMER "David Grubbs, Michael Evans"
SONGWRITER "David Grubbs"
REM COMMENT "Bass – Wayne Montana Drums – John Herndon, Michael Evans Guitar – Steve Albini, Terrie Hessels Guitar, Vocals, Harmonica – David Grubbs Trumpet – Nate Wooley Vibraphone – Jason Adasiewicz Woodwind – Ken Vandermark"
REM REPLAYGAIN_TRACK_GAIN -9.04 dB
REM REPLAYGAIN_TRACK_PEAK 0.914215
INDEX 01 00:00:00
FILE "02 - Out with the Tide.flac" WAVE
TRACK 02 AUDIO
TITLE "Out with the Tide"
PERFORMER "David Grubbs, Michael Evans"
SONGWRITER "David Grubbs"
REM COMMENT "Bass – Wayne Montana Drums – John Herndon, Michael Evans Guitar – Steve Albini, Terrie Hessels Guitar, Vocals, Harmonica – David Grubbs Trumpet – Nate Wooley Vibraphone – Jason Adasiewicz Woodwind – Ken Vandermark"
REM REPLAYGAIN_TRACK_GAIN -8.78 dB
REM REPLAYGAIN_TRACK_PEAK 0.962982
INDEX 01 00:00:00
TRACK 03 AUDIO
TITLE "Nowhere is the Place"
PERFORMER "Parallax Ensemble"
SONGWRITER "Ken Vandermark"
REM COMMENT "Bass – Wayne Montana Drums – John Herndon, Michael Evans Guitar – Steve Albini, Terrie Hessels Guitar, Vocals, Harmonica – David Grubbs Trumpet – Nate Wooley Vibraphone – Jason Adasiewicz Woodwind – Ken Vandermark"
REM REPLAYGAIN_TRACK_GAIN -9.31 dB
REM REPLAYGAIN_TRACK_PEAK 0.960297
INDEX 00 02:28:53
FILE "03 - Nowhere is the Place.flac" WAVE
INDEX 01 00:00:00
TRACK 04 AUDIO
TITLE "Photographed Laughing"
PERFORMER "David Grubbs, Michael Evans"
SONGWRITER "David Grubbs"
REM COMMENT "Bass – Wayne Montana Drums – John Herndon, Michael Evans Guitar – Steve Albini, Terrie Hessels Guitar, Vocals, Harmonica – David Grubbs Trumpet – Nate Wooley Vibraphone – Jason Adasiewicz Woodwind – Ken Vandermark"
REM REPLAYGAIN_TRACK_GAIN -7.94 dB
REM REPLAYGAIN_TRACK_PEAK 0.945831
INDEX 00 07:56:53
FILE "04 - Photographed Laughing.flac" WAVE
INDEX 01 00:00:00
TRACK 05 AUDIO
TITLE "Invisible Road"
PERFORMER "Parallax Ensemble"
SONGWRITER "Ken Vandermark"
REM COMMENT "Bass – Wayne Montana Drums – John Herndon, Michael Evans Guitar – Steve Albini, Terrie Hessels Guitar, Vocals, Harmonica – David Grubbs Trumpet – Nate Wooley Vibraphone – Jason Adasiewicz Woodwind – Ken Vandermark"
REM REPLAYGAIN_TRACK_GAIN -8.46 dB
REM REPLAYGAIN_TRACK_PEAK 0.959137
INDEX 00 03:53:40
FILE "05 - Invisible Road.flac" WAVE
INDEX 01 00:00:00
TRACK 06 AUDIO
TITLE "Soundible Bells"
PERFORMER "Ken Vandermark"
SONGWRITER "Ken Vandermark"
REM COMMENT "Bass – Wayne Montana Drums – John Herndon, Michael Evans Guitar – Steve Albini, Terrie Hessels Guitar, Vocals, Harmonica – David Grubbs Trumpet – Nate Wooley Vibraphone – Jason Adasiewicz Woodwind – Ken Vandermark"
REM REPLAYGAIN_TRACK_GAIN -3.45 dB
REM REPLAYGAIN_TRACK_PEAK 0.730042
INDEX 00 04:57:10
FILE "06 - Soundible Bells.flac" WAVE
INDEX 01 00:00:00
TRACK 07 AUDIO
TITLE "Tomorrow is the Past #1"
PERFORMER "Parallax Ensemble"
SONGWRITER "Ken Vandermark"
REM COMMENT "Bass – Wayne Montana Drums – John Herndon, Michael Evans Guitar – Steve Albini, Terrie Hessels Guitar, Vocals, Harmonica – David Grubbs Trumpet – Nate Wooley Vibraphone – Jason Adasiewicz Woodwind – Ken Vandermark"
REM REPLAYGAIN_TRACK_GAIN -7.89 dB
REM REPLAYGAIN_TRACK_PEAK 0.955017
INDEX 00 02:26:33
FILE "07 - Tomorrow is the Past #1.flac" WAVE
INDEX 01 00:00:00
TRACK 08 AUDIO
TITLE "Chrystal City #1"
PERFORMER "Parallax Ensemble"
SONGWRITER "Ken Vandermark"
REM COMMENT "Bass – Wayne Montana Drums – John Herndon, Michael Evans Guitar – Steve Albini, Terrie Hessels Guitar, Vocals, Harmonica – David Grubbs Trumpet – Nate Wooley Vibraphone – Jason Adasiewicz Woodwind – Ken Vandermark"
REM REPLAYGAIN_TRACK_GAIN -7.61 dB
REM REPLAYGAIN_TRACK_PEAK 0.954742
INDEX 00 05:23:51
FILE "08 - Chrystal City #1.flac" WAVE
INDEX 01 00:00:00
TRACK 09 AUDIO
TITLE "Lady Loop"
PERFORMER "Parallax Ensemble"
SONGWRITER "Ken Vandermark"
REM COMMENT "Bass – Wayne Montana Drums – John Herndon, Michael Evans Guitar – Steve Albini, Terrie Hessels Guitar, Vocals, Harmonica – David Grubbs Trumpet – Nate Wooley Vibraphone – Jason Adasiewicz Woodwind – Ken Vandermark"
REM REPLAYGAIN_TRACK_GAIN -9.03 dB
REM REPLAYGAIN_TRACK_PEAK 0.965424
INDEX 00 06:51:06
FILE "09 - Lady Loop.flac" WAVE
INDEX 01 00:00:00
TRACK 10 AUDIO
TITLE "Air Steps"
PERFORMER "Ken Vandermark"
SONGWRITER "Ken Vandermark"
REM COMMENT "Bass – Wayne Montana Drums – John Herndon, Michael Evans Guitar – Steve Albini, Terrie Hessels Guitar, Vocals, Harmonica – David Grubbs Trumpet – Nate Wooley Vibraphone – Jason Adasiewicz Woodwind – Ken Vandermark"
REM REPLAYGAIN_TRACK_GAIN -10.50 dB
REM REPLAYGAIN_TRACK_PEAK 0.943115
INDEX 00 10:14:56
FILE "10 - Air Steps.flac" WAVE
INDEX 01 00:00:00
TRACK 11 AUDIO
TITLE "Tomorrow is the Past #2"
PERFORMER "Parallax Ensemble"
SONGWRITER "Ken Vandermark"
REM COMMENT "Bass – Wayne Montana Drums – John Herndon, Michael Evans Guitar – Steve Albini, Terrie Hessels Guitar, Vocals, Harmonica – David Grubbs Trumpet – Nate Wooley Vibraphone – Jason Adasiewicz Woodwind – Ken Vandermark"
REM REPLAYGAIN_TRACK_GAIN -9.00 dB
REM REPLAYGAIN_TRACK_PEAK 0.960266
INDEX 00 02:04:71
FILE "11 - Tomorrow is the Past #2.flac" WAVE
INDEX 01 00:00:00
TRACK 12 AUDIO
TITLE "Parallax Game"
PERFORMER "Parallax Ensemble"
SONGWRITER "Ken Vandermark"
REM COMMENT "Bass – Wayne Montana Drums – John Herndon, Michael Evans Guitar – Steve Albini, Terrie Hessels Guitar, Vocals, Harmonica – David Grubbs Trumpet – Nate Wooley Vibraphone – Jason Adasiewicz Woodwind – Ken Vandermark"
REM REPLAYGAIN_TRACK_GAIN -6.63 dB
REM REPLAYGAIN_TRACK_PEAK 0.911530
INDEX 00 05:37:05
FILE "12 - Parallax Game.flac" WAVE
INDEX 01 00:00:00
TRACK 13 AUDIO
TITLE "Chrystal City #2"
PERFORMER "Parallax Ensemble"
SONGWRITER "Ken Vandermark"
REM COMMENT "Bass – Wayne Montana Drums – John Herndon, Michael Evans Guitar – Steve Albini, Terrie Hessels Guitar, Vocals, Harmonica – David Grubbs Trumpet – Nate Wooley Vibraphone – Jason Adasiewicz Woodwind – Ken Vandermark"
REM REPLAYGAIN_TRACK_GAIN -9.55 dB
REM REPLAYGAIN_TRACK_PEAK 0.955536
INDEX 00 04:26:57
FILE "13 - Chrystal City #2.flac" WAVE
INDEX 01 00:00:00
 
Об альбоме
From the acclaimed, innovative post-rock movement of the 1990s to the challenge of being an independent artist today, director Augusto Contento's new documentary Parallax Sounds explores Chicago’s world-famous architecture and its relationship to the extraordinary music created in its midst. Twenty years later, key members of the post-rock movement - from Steve Albini to Ken Vandermark, Ian Williams and others - reflect upon their ideals, politics, and the survival of their art in the City That Works.
Parallax Sounds’ original music stars post-rock and jazz musician, composer and improviser Ken Vandermark as its leading original music composer. Vandermark’s work is interpreted by Parallax Ensemble, which comprises some of the key members of the post-rock movement.
 
Состав
Ken Vandermark - woodwind
Nate Wooley - trumpet
Jason Adasiewicz - vibraphone
Steve Albini - guitar
Terrie Hessels - guitar
David Grubbs - guitar, vocals, harmonica
Wayne Montana - bass
John Herndon - drums
Michael Evans - drums (1, 2, 4)
Саундтрек к документальному фильму Аугусто Контенто о музыке и архитектуре Чикаго.
По всем вопросам пишите личное сообщение пользователю M0p94ok.
06:43
152
Нет комментариев. Ваш будет первым!