Поиск

(EAI, Erstwhile Records) [CD] Burkhard Stangl / Christof Kurzmann - Schnee - 2000, FLAC (tracks+.cue), lossless

(EAI, Erstwhile Records) [CD] Burkhard Stangl / Christof Kurzmann - Schnee - 2000, FLAC (tracks+.cue), lossless
Треклист:
Burkhard Stangl / Christof Kurzmann. Schnee
...и да, раздача посвящена премии "Золотой Графоман", как же здорово товарищи, что она уже 20 лет с нами!

Страна певцов. Austria
Жанр. Electroacoustic + Free Improvisation = EAI
Издатель. Erstwhile Records. Erstwhile 008. USA. 2000
Аудио. FLAC (*flac). tracks+cue. lossless. CD
Сканов в содержимом раздачи. нет
Источник.what.cd

01. Nordrand (15:17)
02. Sans soleil (20:46)
03. Passion (14:01)
04. In einem Jahr mit 13 Monden (23:48)
 
time. 01:13:53
 
log
X Lossless Decoder version 20100409 (117.2)
XLD extraction logfile from 2010-04-11 18:13:57 -0400
Burkhard Stangl/Christof Kurzmann / Schnee
Used drive : MATSHITA DVD-R UJ-868 (revision KB19)
Use cdparanoia mode : YES (CDParanoia III 10.2 engine)
Disable audio cache : OK for the drive with cache less than 2750KB
Make use of C2 pointers : NO
Read offset correction : 102
Max retry count : 100
TOC of the extracted CD
Track | Start | Length | Start sector | End sector
---------------------------------------------------------
1 | 00:00:00 | 15:17:05 | 0 | 68779
2 | 15:17:05 | 20:46:55 | 68780 | 162284
3 | 36:03:60 | 14:00:50 | 162285 | 225334
4 | 50:04:35 | 23:47:57 | 225335 | 332416
All Tracks
Album gain : 3.45 dB
Peak : 0.999939
Track 01
Filename : /Users/xxx/Music/#MYRIPS/Burkhard Stangl : Christof Kurzmann - Schnee (erstwhile 008) FLAC/01 Burkhard StanglChristof Kurzmann - Nordrand.flac
Pre-gap length : 00:02:00
Track gain : 1.91 dB
Peak : 0.999939
CRC32 hash (test run) : 7624878E
CRC32 hash : 7624878E
CRC32 hash (skip zero) : 9E6F42B0
AccurateRip signature : 0CA3AB0D
->Track not present in AccurateRip database.
Statistics
Read error : 0
Skipped (treated as error) : 0
Edge jitter error (maybe fixed) : 0
Atom jitter error (maybe fixed) : 0
Drift error (maybe fixed) : 0
Dropped bytes error (maybe fixed) : 0
Duplicated bytes error (maybe fixed) : 0
Inconsistency in error sectors : 0
Track 02
Filename : /Users/xxx/Music/#MYRIPS/Burkhard Stangl : Christof Kurzmann - Schnee (erstwhile 008) FLAC/02 Burkhard StanglChristof Kurzmann - Passion.flac
Track gain : 2.53 dB
Peak : 0.982391
CRC32 hash (test run) : 3F3DB2FB
CRC32 hash : 3F3DB2FB
CRC32 hash (skip zero) : 4F9007E7
AccurateRip signature : D70C4D01
->Track not present in AccurateRip database.
Statistics
Read error : 0
Skipped (treated as error) : 0
Edge jitter error (maybe fixed) : 0
Atom jitter error (maybe fixed) : 0
Drift error (maybe fixed) : 0
Dropped bytes error (maybe fixed) : 0
Duplicated bytes error (maybe fixed) : 0
Inconsistency in error sectors : 0
Track 03
Filename : /Users/xxx/Music/#MYRIPS/Burkhard Stangl : Christof Kurzmann - Schnee (erstwhile 008) FLAC/03 Burkhard StanglChristof Kurzmann - Sans Soleil.flac
Track gain : 4.23 dB
Peak : 0.989563
CRC32 hash (test run) : A06C58B5
CRC32 hash : A06C58B5
CRC32 hash (skip zero) : 422879BC
AccurateRip signature : 70E06561
->Track not present in AccurateRip database.
Statistics
Read error : 0
Skipped (treated as error) : 0
Edge jitter error (maybe fixed) : 0
Atom jitter error (maybe fixed) : 0
Drift error (maybe fixed) : 0
Dropped bytes error (maybe fixed) : 0
Duplicated bytes error (maybe fixed) : 0
Inconsistency in error sectors : 0
Track 04
Filename : /Users/xxx/Music/#MYRIPS/Burkhard Stangl : Christof Kurzmann - Schnee (erstwhile 008) FLAC/04 Burkhard StanglChristof Kurzmann - In Einem Jahr Mit 13 Monden.flac
Track gain : 7.03 dB
Peak : 0.980103
CRC32 hash (test run) : 4F9271B7
CRC32 hash : 4F9271B7
CRC32 hash (skip zero) : 33EC6DFF
AccurateRip signature : 2DB99CFE
->Track not present in AccurateRip database.
Statistics
Read error : 0
Skipped (treated as error) : 0
Edge jitter error (maybe fixed) : 0
Atom jitter error (maybe fixed) : 0
Drift error (maybe fixed) : 0
Dropped bytes error (maybe fixed) : 0
Duplicated bytes error (maybe fixed) : 0
Inconsistency in error sectors : 0
No errors occurred
End of status report
 
.cue
TITLE "Schnee"
PERFORMER "Burkhard Stangl & Christof Kurzmann"
REM GENRE "Avantgarde"
REM DATE "2000"
FILE "01 Burkhard Stangl & Christof Kurzmann - Nordrand.wav" WAVE
TRACK 01 AUDIO
TITLE "Nordrand"
INDEX 01 00:00:00
FILE "02 Burkhard Stangl & Christof Kurzmann - Passion.wav" WAVE
TRACK 02 AUDIO
TITLE "Passion"
INDEX 01 00:00:00
FILE "03 Burkhard Stangl & Christof Kurzmann - Sans Soleil.wav" WAVE
TRACK 03 AUDIO
TITLE "Sans Soleil"
INDEX 01 00:00:00
FILE "04 Burkhard Stangl & Christof Kurzmann - In Einem Jahr Mit 13 Monden.wav" WAVE
TRACK 04 AUDIO
TITLE "In Einem Jahr Mit 13 Monden"
INDEX 01 00:00:00
 
Burkhard Stangl / Christof Kurzmann
  • Burkhard Stangl (Burkhard Paul Stangl: birth name) - 06.11.1960. Eggenburg / Austria.
    - acoustic guitar / electric guitar / percussion
    Участник: Efzeg, Extended Heritage, Maxixe, Noiset, Polwechsel, Ton Art, The Year Of.
  • Christof Kurzmann - 19.06.1963. Wien / Austria.
    - computer (g3)
    Участник: Boiled Frogs, Extended Versions, N.W.O., The Magic I.D., Maxi, The More Extended Versions, Orchester 33 1/3, Qmince, Same, Shabotinski, The Year Of.
 
Schnee
  • Album, Collaboration
  • Recorded: 28.12.1999 live at Amann Studios/Vienna.
  • Erstwhile Records press release:
    Stangl and Christof Kurzmann are both internationally known musicians from Vienna.
    Stangl is best known for being a member of the seminal improv group Polwechsel, for his superb solo record Récital, and for his five part, work-in-progress opera Venusmond.
    Kurzmann is a co-leader of Orchester 33 1/3 with Christian Fennesz, runs Charhizma Records, and appears on the self-titled improv document CD on Charhizma, along with Fennesz and Werner Dafeldecker, with guest performances by Kevin Drumm, Jim O'Rourke, and Martin Siewert.
    While both musicians have been involved in the Viennese music scene since the late eighties, and have been friends just as long, their musical interests lay in different areas until fairly recently. They never played in the same band until Kurzmann sat in with Polwechsel in September of 1999 in NYC. When they returned to Vienna, they recorded this duo record, inspired by four favorite movies of theirs and by a quote from Swiss writer Robert Walser. Schnee consists of four long soundscapes, with Kurzmann's sedate electronics underpinning Stangl's atmospheric plucking.

  • ""Schnee" is not about freezing, it is about snow. Therefore anything "liquid" is gone, and has been transferred into a malleable body its grainy patterns and particles are what Kurzmann creates circular asymmetrical patterns within. Stangl's guitar is brittle, dissolving like icicle drops. This record's beauty is in the critical fact that it explores the differences in computer generated and acoustic music, unlike a forced marriage or a systematic clash. Strikingly, it finds its entry at the extremity of fundamental difference between the worlds of the two instruments. It is not reductionist--in that it does not lack matter to its dialogue. Simply these two artists are so assured and comfortable within the language that it leads to saying less."- Dean Roberts

Log (99%) - (info, What.cd) - Details:
XLD version 2010/01/23-2010/07/04 log with AccurateRip enabled
but cannot verify gaps detected, -1 point (does not affect audiodata), -1 point [99]
По всем вопросам пишите личное сообщение пользователю M0p94ok.
06:45
154
Нет комментариев. Ваш будет первым!