Поиск

(Free Improvisation) [CD] Arrigo Cappelletti, Andrea Massaria, Nicola Stranieri, Mat Maneri - Metamorphosis - 2011, FLAC (tracks+.cue), lossless

(Free Improvisation) [CD] Arrigo Cappelletti, Andrea Massaria, Nicola Stranieri, Mat Maneri - Metamorphosis - 2011, FLAC (tracks+.cue), lossless
Cappelletti, Massaria, Stranieri, Maneri / Metamorphosis
Жанр: Free Improvisation
Носитель: CD
Страна-производитель диска (релиза): UK
Год издания: 2011
Издатель (лейбл): Leo Records
Номер по каталогу: CD LR 597
Аудиокодек: FLAC (*.flac)
Тип рипа: tracks+.cue
Битрейт аудио: lossless
Продолжительность: 57:30
Источник (релизер): whatcd (bemsha)
Наличие сканов в содержимом раздачи: да
Треклист:
1 Anti-clockwise 3:54
2 Hendrix 11:20
3 Dancin' 6:20
4 Batterie 4:31
5 Vexations 5:35
6 Free Monk 4:20
7 From V. To V. 6:26
8 Vox Dei, Pietre Che Cantano 8:14
9 Free Waltz 6:47
 
Лог создания рипа
Exact Audio Copy V1.0 beta 2 from 29. April 2011
EAC extraction logfile from 2. December 2011, 21:24
Cappelletti, Massaria, Stranieri, Maneri / Metamorphosis
Used drive : HL-DT-STDVDRAM GH24NS50 Adapter: 1 ID: 1
Read mode : Secure
Utilize accurate stream : Yes
Defeat audio cache : Yes
Make use of C2 pointers : No
Read offset correction : 667
Overread into Lead-In and Lead-Out : No
Fill up missing offset samples with silence : Yes
Delete leading and trailing silent blocks : No
Null samples used in CRC calculations : Yes
Used interface : Native Win32 interface for Win NT & 2000
Gap handling : Appended to previous track
Used output format : User Defined Encoder
Selected bitrate : 768 kBit/s
Quality : High
Add ID3 tag : No
Command line compressor : E:\Programmi\Exact Audio Copy\Flac\flac.exe
Additional command line options : -8 -V -T "ARTIST=%artist%" -T "TITLE=%title%" -T "ALBUM=%albumtitle%" -T "DATE=%year%" -T "TRACKNUMBER=%tracknr%" -T "TOTALTRACKS=%numtracks%" -T "GENRE=%genre%" -T "ALBUMARTIST=%albumartist%" -T "ALBUM ARTIST=%albumartist%
TOC of the extracted CD
Track | Start | Length | Start sector | End sector
---------------------------------------------------------
1 | 0:00.00 | 3:54.44 | 0 | 17593
2 | 3:54.44 | 11:20.53 | 17594 | 68646
3 | 15:15.22 | 6:20.10 | 68647 | 97156
4 | 21:35.32 | 4:32.00 | 97157 | 117556
5 | 26:07.32 | 5:35.19 | 117557 | 142700
6 | 31:42.51 | 4:20.38 | 142701 | 162238
7 | 36:03.14 | 6:26.10 | 162239 | 191198
8 | 42:29.24 | 8:14.38 | 191199 | 228286
9 | 50:43.62 | 6:47.10 | 228287 | 258821
Track 1
Filename C:\Documents and Settings\user\Desktop\Cappelletti, Massaria, Stranieri, Maneri - Metamorphosis (2011) [FLAC] {Leo Rec}\01 - AntiClockwise.wav
Pre-gap length 0:00:02.00
Peak level 97.7 %
Extraction speed 1.0 X
Track quality 100.0 %
Test CRC 7C0415D4
Copy CRC 7C0415D4
Track not present in AccurateRip database
Copy OK
Track 2
Filename C:\Documents and Settings\user\Desktop\Cappelletti, Massaria, Stranieri, Maneri - Metamorphosis (2011) [FLAC] {Leo Rec}\02 - Mix Hendrix.wav
Pre-gap length 0:00:03.00
Peak level 98.3 %
Extraction speed 1.3 X
Track quality 100.0 %
Test CRC FB22379C
Copy CRC FB22379C
Track not present in AccurateRip database
Copy OK
Track 3
Filename C:\Documents and Settings\user\Desktop\Cappelletti, Massaria, Stranieri, Maneri - Metamorphosis (2011) [FLAC] {Leo Rec}\03 - Dancin'.wav
Pre-gap length 0:00:03.00
Peak level 98.9 %
Extraction speed 1.4 X
Track quality 99.9 %
Test CRC FB7A3546
Copy CRC FB7A3546
Track not present in AccurateRip database
Copy OK
Track 4
Filename C:\Documents and Settings\user\Desktop\Cappelletti, Massaria, Stranieri, Maneri - Metamorphosis (2011) [FLAC] {Leo Rec}\04 - Batterie.wav
Pre-gap length 0:00:03.00
Peak level 99.6 %
Extraction speed 1.6 X
Track quality 100.0 %
Test CRC 53FE5286
Copy CRC 53FE5286
Track not present in AccurateRip database
Copy OK
Track 5
Filename C:\Documents and Settings\user\Desktop\Cappelletti, Massaria, Stranieri, Maneri - Metamorphosis (2011) [FLAC] {Leo Rec}\05 - Vexation.wav
Pre-gap length 0:00:03.00
Peak level 95.7 %
Extraction speed 1.7 X
Track quality 100.0 %
Test CRC 8AFAB127
Copy CRC 8AFAB127
Track not present in AccurateRip database
Copy OK
Track 6
Filename C:\Documents and Settings\user\Desktop\Cappelletti, Massaria, Stranieri, Maneri - Metamorphosis (2011) [FLAC] {Leo Rec}\06 - Free Monk.wav
Pre-gap length 0:00:03.00
Peak level 98.7 %
Extraction speed 1.7 X
Track quality 100.0 %
Test CRC B13FFBE5
Copy CRC B13FFBE5
Track not present in AccurateRip database
Copy OK
Track 7
Filename C:\Documents and Settings\user\Desktop\Cappelletti, Massaria, Stranieri, Maneri - Metamorphosis (2011) [FLAC] {Leo Rec}\07 - Vincent.wav
Pre-gap length 0:00:03.00
Peak level 98.6 %
Extraction speed 2.0 X
Track quality 100.0 %
Test CRC 7515F0FF
Copy CRC 7515F0FF
Track not present in AccurateRip database
Copy OK
Track 8
Filename C:\Documents and Settings\user\Desktop\Cappelletti, Massaria, Stranieri, Maneri - Metamorphosis (2011) [FLAC] {Leo Rec}\08 - Vox dei, Pietre Che Cantano.wav
Pre-gap length 0:00:03.00
Peak level 99.5 %
Extraction speed 2.1 X
Track quality 100.0 %
Test CRC 11F0C4FA
Copy CRC 11F0C4FA
Track not present in AccurateRip database
Copy OK
Track 9
Filename C:\Documents and Settings\user\Desktop\Cappelletti, Massaria, Stranieri, Maneri - Metamorphosis (2011) [FLAC] {Leo Rec}\09 - Free Waltz.wav
Pre-gap length 0:00:03.00
Peak level 97.6 %
Extraction speed 2.2 X
Track quality 100.0 %
Test CRC 936679B4
Copy CRC 936679B4
Track not present in AccurateRip database
Copy OK
None of the tracks are present in the AccurateRip database
No errors occurred
End of status report
==== Log checksum C929FACBD52EF5A3784DD8F61E47ED9D293D2D70753C5F44AB61F01483E87348 ====
 
Содержание индексной карты (.CUE)
REM GENRE Jazz
REM DATE 2011
REM DISCID 7B0D7A09
REM COMMENT "ExactAudioCopy v1.0b2"
PERFORMER " Cappelletti, Massaria, Stranieri, Maneri"
TITLE "Metamorphosis"
FILE "01 - AntiClockwise.wav" WAVE
TRACK 01 AUDIO
TITLE "AntiClockwise "
PERFORMER " Cappelletti, Massaria, Stranieri, Maneri"
INDEX 01 00:00:00
TRACK 02 AUDIO
TITLE "Mix Hendrix "
PERFORMER " Cappelletti, Massaria, Stranieri, Maneri"
INDEX 00 03:51:44
FILE "02 - Mix Hendrix.wav" WAVE
INDEX 01 00:00:00
TRACK 03 AUDIO
TITLE "Dancin' "
PERFORMER " Cappelletti, Massaria, Stranieri, Maneri"
INDEX 00 11:17:53
FILE "03 - Dancin'.wav" WAVE
INDEX 01 00:00:00
TRACK 04 AUDIO
TITLE "Batterie "
PERFORMER " Cappelletti, Massaria, Stranieri, Maneri"
INDEX 00 06:17:10
FILE "04 - Batterie.wav" WAVE
INDEX 01 00:00:00
TRACK 05 AUDIO
TITLE "Vexation "
PERFORMER " Cappelletti, Massaria, Stranieri, Maneri"
INDEX 00 04:29:00
FILE "05 - Vexation.wav" WAVE
INDEX 01 00:00:00
TRACK 06 AUDIO
TITLE "Free Monk"
PERFORMER " Cappelletti, Massaria, Stranieri, Maneri"
INDEX 00 05:32:19
FILE "06 - Free Monk.wav" WAVE
INDEX 01 00:00:00
TRACK 07 AUDIO
TITLE "Vincent "
PERFORMER " Cappelletti, Massaria, Stranieri, Maneri"
INDEX 00 04:17:38
FILE "07 - Vincent.wav" WAVE
INDEX 01 00:00:00
TRACK 08 AUDIO
TITLE "Vox dei, Pietre Che Cantano"
PERFORMER " Cappelletti, Massaria, Stranieri, Maneri"
INDEX 00 06:23:10
FILE "08 - Vox dei, Pietre Che Cantano.wav" WAVE
INDEX 01 00:00:00
TRACK 09 AUDIO
TITLE "Free Waltz "
PERFORMER " Cappelletti, Massaria, Stranieri, Maneri"
INDEX 00 08:11:38
FILE "09 - Free Waltz.wav" WAVE
INDEX 01 00:00:00
Доп. информация: Recorded in Trieste at Casadella Musica, November 9 & 10, 2010
 
Об альбоме (сборнике)
Courageous and innovative, this quartet presents an unusually lyrical free jazz where the viola player Mat Maneri and the italian pianist Arrigo Cappelletti play a fundamental role. When pianist and composer Arrigo Cappelletti invited Mat Maneri to join his group his aim was to realize a project of collective improvisation experienced like a process of constant change and metamorphosis. The music presents many influences; from Mahler to Satie, from tango to electronic music, from blues to unconventional kinds such as Carla Bley's, Jimi Hendrix' and Thelonius Monk's.
 
Состав
Drums – Nicola Stranieri
Guitar – Andrea Massaria
Piano – Arrigo Cappelletti
Viola – Mat Maneri
06:45
260
Нет комментариев. Ваш будет первым!