Вы используете незарегистрированную версию компонента "Вкладки"!

Поиск

(Free Jazz) [CD] Whit Dickey - Sacred Ground (feat. Rob Brown, Roy Campbell, Joe Morris) - 2006, FLAC (tracks+.cue), lossless

Треклист:
Whit Dickey / Sacred Ground
Жанр: Free Jazz
Носитель: CD
Страна-производитель диска: Portugal
Год издания: 2006
Издатель (лейбл): Clean Feed
Номер по каталогу: CF057CD
Страна исполнителя (группы): USA
Аудиокодек: FLAC (*.flac)
Тип рипа: tracks+.cue
Битрейт аудио: lossless
Продолжительность: 00:46:26
Источник (релизер): 6060842
Наличие сканов в содержимом раздачи: нет
Треклист:
1 Vortex 7:14
2 Soldier Of Uncertainty 12:08
3 Sacred Ground 8:37
4 Vital Transmission 11:18
5 Dream Of Caravans 7:08
All compositions by Whit Dickey
youtube.com
 
Лог создания рипа
X Lossless Decoder version 20130407 (143.0)
XLD extraction logfile from 2013-04-29 07:26:02 +0400
Whit Dickey, Joe Morris, Rob Brown, Roy Campbell / Sacred Ground
Used drive : HL-DT-ST DVDRW GX30N (revision RP09)
Media type : Pressed CD
Ripper mode : XLD Secure Ripper
Disable audio cache : OK for the drive with a cache less than 1375KiB
Make use of C2 pointers : NO
Read offset correction : 6
Max retry count : 20
Gap status : Analyzed, Appended
TOC of the extracted CD
Track | Start | Length | Start sector | End sector
---------------------------------------------------------
1 | 00:00:00 | 07:14:43 | 0 | 32592
2 | 07:14:43 | 12:08:69 | 32593 | 87261
3 | 19:23:37 | 08:38:24 | 87262 | 126135
4 | 28:01:61 | 11:18:01 | 126136 | 176986
5 | 39:19:62 | 07:08:40 | 176987 | 209126
AccurateRip Summary
Disc not found in AccurateRip DB.
All Tracks
Album gain : -3.87 dB
Peak : 0.977325
Statistics
Read error : 0
Jitter error (maybe fixed) : 0
Retry sector count : 0
Damaged sector count : 0
Track 01
Filename : /Users/anch/Music/FLAC/Whit Dickey, Joe Morris, Rob Brown, Roy Campbell - 2006 - Sacred Ground [FLAC]/01 - Vortex.flac
/Users/anch/Music/FLAC/Whit Dickey, Joe Morris, Rob Brown, Roy Campbell - 2006 - Sacred Ground [MP3 320]/01 - Vortex.mp3
/Users/anch/Music/FLAC/Whit Dickey, Joe Morris, Rob Brown, Roy Campbell - 2006 - Sacred Ground [MP3 V0]/01 - Vortex.mp3
Pre-gap length : 00:02:00
Track gain : -3.81 dB
Peak : 0.977325
CRC32 hash (test run) : C4D71FC0
CRC32 hash : C4D71FC0
CRC32 hash (skip zero) : D3192BD2
AccurateRip v1 signature : C984C762
AccurateRip v2 signature : 8629AABB
->Track not present in AccurateRip database.
Statistics
Read error : 0
Jitter error (maybe fixed) : 0
Retry sector count : 0
Damaged sector count : 0
Track 02
Filename : /Users/anch/Music/FLAC/Whit Dickey, Joe Morris, Rob Brown, Roy Campbell - 2006 - Sacred Ground [FLAC]/02 - Soldier of Uncertainty.flac
/Users/anch/Music/FLAC/Whit Dickey, Joe Morris, Rob Brown, Roy Campbell - 2006 - Sacred Ground [MP3 320]/02 - Soldier of Uncertainty.mp3
/Users/anch/Music/FLAC/Whit Dickey, Joe Morris, Rob Brown, Roy Campbell - 2006 - Sacred Ground [MP3 V0]/02 - Soldier of Uncertainty.mp3
Track gain : -2.92 dB
Peak : 0.977325
CRC32 hash (test run) : 16D27CFA
CRC32 hash : 16D27CFA
CRC32 hash (skip zero) : F27FAB4E
AccurateRip v1 signature : 0FF0FD09
AccurateRip v2 signature : E753CE15
->Track not present in AccurateRip database.
Statistics
Read error : 0
Jitter error (maybe fixed) : 0
Retry sector count : 0
Damaged sector count : 0
Track 03
Filename : /Users/anch/Music/FLAC/Whit Dickey, Joe Morris, Rob Brown, Roy Campbell - 2006 - Sacred Ground [FLAC]/03 - Sacred Ground.flac
/Users/anch/Music/FLAC/Whit Dickey, Joe Morris, Rob Brown, Roy Campbell - 2006 - Sacred Ground [MP3 320]/03 - Sacred Ground.mp3
/Users/anch/Music/FLAC/Whit Dickey, Joe Morris, Rob Brown, Roy Campbell - 2006 - Sacred Ground [MP3 V0]/03 - Sacred Ground.mp3
Pre-gap length : 00:02:00
Track gain : -4.19 dB
Peak : 0.977325
CRC32 hash (test run) : 314E7537
CRC32 hash : 314E7537
CRC32 hash (skip zero) : E833E879
AccurateRip v1 signature : 04294ECE
AccurateRip v2 signature : 96DF6FE3
->Track not present in AccurateRip database.
Statistics
Read error : 0
Jitter error (maybe fixed) : 0
Retry sector count : 0
Damaged sector count : 0
Track 04
Filename : /Users/anch/Music/FLAC/Whit Dickey, Joe Morris, Rob Brown, Roy Campbell - 2006 - Sacred Ground [FLAC]/04 - Vital Transmission.flac
/Users/anch/Music/FLAC/Whit Dickey, Joe Morris, Rob Brown, Roy Campbell - 2006 - Sacred Ground [MP3 320]/04 - Vital Transmission.mp3
/Users/anch/Music/FLAC/Whit Dickey, Joe Morris, Rob Brown, Roy Campbell - 2006 - Sacred Ground [MP3 V0]/04 - Vital Transmission.mp3
Pre-gap length : 00:01:00
Track gain : -4.53 dB
Peak : 0.977325
CRC32 hash (test run) : 3474AF38
CRC32 hash : 3474AF38
CRC32 hash (skip zero) : 1791FDFE
AccurateRip v1 signature : 068CF1A2
AccurateRip v2 signature : 45A1AE61
->Track not present in AccurateRip database.
Statistics
Read error : 0
Jitter error (maybe fixed) : 0
Retry sector count : 0
Damaged sector count : 0
Track 05
Filename : /Users/anch/Music/FLAC/Whit Dickey, Joe Morris, Rob Brown, Roy Campbell - 2006 - Sacred Ground [FLAC]/05 - Dream of Caravans.flac
/Users/anch/Music/FLAC/Whit Dickey, Joe Morris, Rob Brown, Roy Campbell - 2006 - Sacred Ground [MP3 320]/05 - Dream of Caravans.mp3
/Users/anch/Music/FLAC/Whit Dickey, Joe Morris, Rob Brown, Roy Campbell - 2006 - Sacred Ground [MP3 V0]/05 - Dream of Caravans.mp3
Pre-gap length : 00:02:23
Track gain : -3.17 dB
Peak : 0.977234
CRC32 hash (test run) : E09A04E4
CRC32 hash : E09A04E4
CRC32 hash (skip zero) : 5F87B356
AccurateRip v1 signature : 51933D80
AccurateRip v2 signature : 492626CB
->Track not present in AccurateRip database.
Statistics
Read error : 0
Jitter error (maybe fixed) : 0
Retry sector count : 0
Damaged sector count : 0
No errors occurred
End of status report
 
Содержание индексной карты (.CUE)
TITLE "Sacred Ground"
PERFORMER "Whit Dickey, Joe Morris, Rob Brown, Roy Campbell"
REM GENRE "Free Jazz"
REM DATE "2006"
REM DISCID 3A0AE405
REM REPLAYGAIN_ALBUM_GAIN -3.87 dB
REM REPLAYGAIN_ALBUM_PEAK 0.977325
FILE "01 - Vortex.flac" WAVE
TRACK 01 AUDIO
TITLE "Vortex"
PERFORMER "Whit Dickey, Joe Morris, Rob Brown, Roy Campbell"
REM REPLAYGAIN_TRACK_GAIN -3.81 dB
REM REPLAYGAIN_TRACK_PEAK 0.977325
INDEX 01 00:00:00
FILE "02 - Soldier of Uncertainty.flac" WAVE
TRACK 02 AUDIO
TITLE "Soldier of Uncertainty"
PERFORMER "Whit Dickey, Joe Morris, Rob Brown, Roy Campbell"
REM REPLAYGAIN_TRACK_GAIN -2.92 dB
REM REPLAYGAIN_TRACK_PEAK 0.977325
INDEX 01 00:00:00
TRACK 03 AUDIO
TITLE "Sacred Ground"
PERFORMER "Whit Dickey, Joe Morris, Rob Brown, Roy Campbell"
REM REPLAYGAIN_TRACK_GAIN -4.19 dB
REM REPLAYGAIN_TRACK_PEAK 0.977325
INDEX 00 12:06:69
FILE "03 - Sacred Ground.flac" WAVE
INDEX 01 00:00:00
TRACK 04 AUDIO
TITLE "Vital Transmission"
PERFORMER "Whit Dickey, Joe Morris, Rob Brown, Roy Campbell"
REM REPLAYGAIN_TRACK_GAIN -4.53 dB
REM REPLAYGAIN_TRACK_PEAK 0.977325
INDEX 00 08:37:24
FILE "04 - Vital Transmission.flac" WAVE
INDEX 01 00:00:00
TRACK 05 AUDIO
TITLE "Dream of Caravans"
PERFORMER "Whit Dickey, Joe Morris, Rob Brown, Roy Campbell"
REM REPLAYGAIN_TRACK_GAIN -3.17 dB
REM REPLAYGAIN_TRACK_PEAK 0.977234
INDEX 00 11:15:53
FILE "05 - Dream of Caravans.flac" WAVE
INDEX 01 00:00:00
 
Об альбоме (сборнике)
On Sacred Ground, an album by another progressively-leaning drummer in Whit Dickey, three of the five tracks follow a traditional head-solo-head format. But don't let this fool you, the sound is anything but traditional. The melodies are short and complex and bring to mind the precision of Frank Zappa or Henry Threadgill. The duets between Rob Brown (alto) and Roy Campbell (trumpet) crackle with energy. Campbell's timing is slightly behind Brown and it creates just enough space between the two that you clearly hear both soloing during their duets. This separation allows Brown the freedom to explore more free areas. On "Vital Transmission Brown pushes the ensemble further and further into free areas. The duets between Dickey and Joe Morris' bass are fast and intense with the edge going to Dickey.
 
Состав
Roy Campbell – trumpet
Rob Brown – alto sax
Joe Morris – double bass
Whit Dickey – drums
По всем вопросам пишите личное сообщение пользователю M0p94ok.
05:56
133
Нет комментариев. Ваш будет первым!