Поиск

(Free Jazz / Contemporary Jazz / Jazz Fusion) Tommy Babin's Benzene - Your Body Is Your Prison - 2010, FLAC (tracks+.cue), lossless

(Free Jazz / Contemporary Jazz / Jazz Fusion) Tommy Babin's Benzene - Your Body Is Your Prison - 2010, FLAC (tracks+.cue), lossless
Треклист:
Tommy Babin's Benzene / Your Body Is Your Prison
Жанр: Free Jazz / Contemporary Jazz / Jazz Fusion
Страна-производитель диска: Canada
Год издания: 2010
Издатель (лейбл): Drip Audio
Номер по каталогу: DA00584
Страна исполнителя (группы): Canada
Аудиокодек: FLAC (*.flac)
Тип рипа: tracks+.cue
Битрейт аудио: lossless
Продолжительность: 49:41 min
Источник (релизер): Stephane Roberts
Наличие сканов в содержимом раздачи:
Треклист:
1. Your Body Is Your Prison. 6:27
2. Damaged. 8:31
3. The Thing And I. 8:40
4. Citizen Kang. 5:27
5. Interlude. 0:56
6. Les Trous Du Ciel. 4:37
7. Pretty Boy Floyd. 6:00
8. They Didn't Know They Were Robots. 5:02
9. Sky Beneath My Feet. 4:02
 
Лог создания рипа
Exact Audio Copy V1.0 beta 3 from 29. August 2011
EAC extraction logfile from 13. November 2014, 21:18
Tommy Babin's Benzene / Your Body Is Your Prison
Used drive : ATAPI iHAS124 E Adapter: 0 ID: 0
Read mode : Secure
Utilize accurate stream : Yes
Defeat audio cache : Yes
Make use of C2 pointers : No
Read offset correction : 6
Overread into Lead-In and Lead-Out : No
Fill up missing offset samples with silence : Yes
Delete leading and trailing silent blocks : No
Null samples used in CRC calculations : Yes
Used interface : Native Win32 interface for Win NT & 2000
Gap handling : Appended to previous track
Used output format : Internal WAV Routines
Sample format : 44.100 Hz; 16 Bit; Stereo
TOC of the extracted CD
Track | Start | Length | Start sector | End sector
---------------------------------------------------------
1 | 0:02.00 | 6:28.43 | 150 | 29292
2 | 6:30.43 | 8:32.53 | 29293 | 67745
3 | 15:03.21 | 8:41.71 | 67746 | 106891
4 | 23:45.17 | 5:28.60 | 106892 | 131551
5 | 29:14.02 | 0:57.55 | 131552 | 135881
6 | 30:11.57 | 4:38.66 | 135882 | 156797
7 | 34:50.48 | 6:02.25 | 156798 | 183972
8 | 40:52.73 | 5:04.14 | 183973 | 206786
9 | 45:57.12 | 4:01.72 | 206787 | 224933
Track 1
Filename C:\_EAC\01 Your Body Is Your Prison.wav
Pre-gap length 0:00:04.00
Peak level 97.7 %
Extraction speed 1.3 X
Track quality 100.0 %
Test CRC 4C28ABFA
Copy CRC 4C28ABFA
Track not present in AccurateRip database
Copy OK
Track 2
Filename C:\_EAC\02 Damaged.wav
Pre-gap length 0:00:02.00
Peak level 97.6 %
Extraction speed 1.5 X
Track quality 100.0 %
Test CRC F026ECB9
Copy CRC F026ECB9
Track not present in AccurateRip database
Copy OK
Track 3
Filename C:\_EAC\03 The Thing And I.wav
Pre-gap length 0:00:02.00
Peak level 97.6 %
Extraction speed 1.7 X
Track quality 100.0 %
Test CRC 5CEBC9D5
Copy CRC 5CEBC9D5
Track not present in AccurateRip database
Copy OK
Track 4
Filename C:\_EAC\04 Citizen Kang.wav
Pre-gap length 0:00:02.00
Peak level 100.0 %
Extraction speed 1.8 X
Track quality 100.0 %
Test CRC 4ACB6360
Copy CRC 4ACB6360
Track not present in AccurateRip database
Copy OK
Track 5
Filename C:\_EAC\05 Interlude.wav
Pre-gap length 0:00:02.00
Peak level 58.5 %
Extraction speed 0.9 X
Track quality 99.8 %
Test CRC 44F5E753
Copy CRC 44F5E753
Track not present in AccurateRip database
Copy OK
Track 6
Filename C:\_EAC\06 Les Trous Du Ciel.wav
Pre-gap length 0:00:02.00
Peak level 97.7 %
Extraction speed 1.7 X
Track quality 99.9 %
Test CRC 5AB05CD6
Copy CRC 5AB05CD6
Track not present in AccurateRip database
Copy OK
Track 7
Filename C:\_EAC\07 Pretty Boy Floyd.wav
Pre-gap length 0:00:02.00
Peak level 98.1 %
Extraction speed 2.0 X
Track quality 100.0 %
Test CRC 91A748E2
Copy CRC 91A748E2
Track not present in AccurateRip database
Copy OK
Track 8
Filename C:\_EAC\08 They Didn't Know They Were Robots.wav
Pre-gap length 0:00:02.00
Peak level 97.6 %
Extraction speed 2.1 X
Track quality 100.0 %
Test CRC 2D68659E
Copy CRC 2D68659E
Track not present in AccurateRip database
Copy OK
Track 9
Filename C:\_EAC\09 Sky Beneath My Feet.wav
Pre-gap length 0:00:02.00
Peak level 98.1 %
Extraction speed 2.1 X
Track quality 100.0 %
Test CRC CAF9E27E
Copy CRC CAF9E27E
Track not present in AccurateRip database
Copy OK
None of the tracks are present in the AccurateRip database
No errors occurred
End of status report
 
Содержание индексной карты (.CUE)
REM GENRE "Free Jazz / Contemporary Jazz"
REM DATE 2010
REM DISCID 810BB509
REM COMMENT "ExactAudioCopy v1.0b3"
PERFORMER "Tommy Babin's Benzene"
TITLE "Your Body Is Your Prison"
FILE "01 Your Body Is Your Prison.wav" WAVE
TRACK 01 AUDIO
TITLE "Your Body Is Your Prison"
PERFORMER "Tommy Babin's Benzene"
PREGAP 00:02:00
INDEX 01 00:00:00
TRACK 02 AUDIO
TITLE "Damaged"
PERFORMER "Tommy Babin's Benzene"
INDEX 00 06:26:43
FILE "02 Damaged.wav" WAVE
INDEX 01 00:00:00
TRACK 03 AUDIO
TITLE "The Thing And I"
PERFORMER "Tommy Babin's Benzene"
INDEX 00 08:30:53
FILE "03 The Thing And I.wav" WAVE
INDEX 01 00:00:00
TRACK 04 AUDIO
TITLE "Citizen Kang"
PERFORMER "Tommy Babin's Benzene"
INDEX 00 08:39:71
FILE "04 Citizen Kang.wav" WAVE
INDEX 01 00:00:00
TRACK 05 AUDIO
TITLE "Interlude"
PERFORMER "Tommy Babin's Benzene"
INDEX 00 05:26:60
FILE "05 Interlude.wav" WAVE
INDEX 01 00:00:00
TRACK 06 AUDIO
TITLE "Les Trous Du Ciel"
PERFORMER "Tommy Babin's Benzene"
INDEX 00 00:55:55
FILE "06 Les Trous Du Ciel.wav" WAVE
INDEX 01 00:00:00
TRACK 07 AUDIO
TITLE "Pretty Boy Floyd"
PERFORMER "Tommy Babin's Benzene"
INDEX 00 04:36:66
FILE "07 Pretty Boy Floyd.wav" WAVE
INDEX 01 00:00:00
TRACK 08 AUDIO
TITLE "They Didn't Know They Were Robots"
PERFORMER "Tommy Babin's Benzene"
INDEX 00 06:00:25
FILE "08 They Didn't Know They Were Robots.wav" WAVE
INDEX 01 00:00:00
TRACK 09 AUDIO
TITLE "Sky Beneath My Feet"
PERFORMER "Tommy Babin's Benzene"
INDEX 00 05:02:14
FILE "09 Sky Beneath My Feet.wav" WAVE
INDEX 01 00:00:00
 
Лог проверки качества
-----------------------
DON'T MODIFY THIS FILE
-----------------------
PERFORMER: auCDtect Task Manager, ver. 1.6.0 RC1 build 1.6.0.1
Copyright (c) 2008-2010 y-soft. All rights reserved
http://y-soft.org
ANALYZER: auCDtect: CD records authenticity detector, version 0.8.2
Copyright (c) 2004 Oleg Berngardt. All rights reserved.
Copyright (c) 2004 Alexander Djourik. All rights reserved.
FILE: 01 Your Body Is Your Prison.flac
Size: 38646744 Hash: 04CD6D1580A96DA236BCC487C81556F3 Accuracy: -m0
Conclusion: CDDA 100%
Signature: 68E44778A367979A102053BD262A0E02F739E65C
FILE: 02 Damaged.flac
Size: 45944365 Hash: 0D4D586FDC8EC5E14C21FC2004852E80 Accuracy: -m0
Conclusion: CDDA 100%
Signature: 5F90B49A8096B2119457F15F311F44CE44DA1EE4
FILE: 03 The Thing And I.flac
Size: 50749794 Hash: 4A95598E805A27EA8376BDFBE61DA21A Accuracy: -m0
Conclusion: CDDA 100%
Signature: 803461EDF352BBFA6E51846D3E440340BAA19728
FILE: 04 Citizen Kang.flac
Size: 35416368 Hash: DD7323CF86EC6E3A5A1DB0E59320FCD6 Accuracy: -m0
Conclusion: CDDA 100%
Signature: 28489FD334B6EB7BCD25579D1820802E4434B986
FILE: 05 Interlude.flac
Size: 3359188 Hash: 1FC1789BBE76DF744F0DEF392365C642 Accuracy: -m0
Conclusion: CDDA 100%
Signature: D26A6D1FEA1C1E03585398AC06F7E7A44A5E58EC
FILE: 06 Les Trous Du Ciel.flac
Size: 23466093 Hash: B52399D9C5F56DB44C6F805EAE1B20EB Accuracy: -m0
Conclusion: CDDA 100%
Signature: AB27B994FE4F913264DD9737F9C5D2CD9823F687
FILE: 07 Pretty Boy Floyd.flac
Size: 36134901 Hash: 2AD7A412207BAD17C09A37FE879315FB Accuracy: -m0
Conclusion: CDDA 100%
Signature: A57687A8956427FEB3185E0BE9E3CCDB8596BCA6
FILE: 08 They Didn't Know They Were Robots.flac
Size: 27369132 Hash: 35B30CB1E5FF1D78473D33CD8A7C7B71 Accuracy: -m0
Conclusion: CDDA 100%
Signature: AEA9117AF3E8EFF8E90910235EFFDA9565405B5D
FILE: 09 Sky Beneath My Feet.flac
Size: 27558258 Hash: 05AD55E4755F0333F1A427F359B9EBC7 Accuracy: -m0
Conclusion: CDDA 100%
Signature: E68B59B0D67D18844BCFE2C581974DE675A5ABBE
 
Об альбоме (сборнике)
Mixed & Mastered by Dave Sikula
Recorded by Jesse Gander
 
Состав
Tommy Babin: Bass
Chad Makela: Baritone Saxophone
Skye Brooks: Drums
Chad MacQuarrie: Guitar
По всем вопросам пишите личное сообщение пользователю M0p94ok.
05:56
202
Нет комментариев. Ваш будет первым!