Вы используете незарегистрированную версию компонента "Вкладки"!

Поиск

(free jazz, avant-garde) [cd] Junk Box (Satoko Fujii, Natsuki Tamura, John Hollenbeck) - Cloudy then Sunny [Libra Records, LIBRA 203-019] 2008, FLAC (tracks+.cue), lossless

(free jazz, avant-garde) [cd] Junk Box (Satoko Fujii, Natsuki Tamura, John Hollenbeck) - Cloudy then Sunny [Libra Records, LIBRA 203-019] 2008, FLAC (tracks+.cue), lossless
Треклист:
(free jazz, avant-garde) [cd] Junk Box (Satoko Fujii, Natsuki Tamura, John Hollenbeck) - Cloudy then Sunny [Libra Records, LIBRA 203-019] 2008, FLAC (tracks+.cue), lossless


Junk Box (Satoko Fujii, Natsuki Tamura, John Hollenbeck)
Cloudy then Sunny [Libra Records, LIBRA 203-019]
Жанр: free jazz, avant-garde
Год выпуска: 2008
Издатель (лейбл):Libra Records, LIBRA 203-019
Формат: FLAC (tracks+.cue)
Битрейт аудио: lossless
Продолжительность 56`02
Источник: what.cd
Percussion – John Hollenbeck
Piano, Liner Notes – Satoko Fujii
Trumpet, Producer – Natsuki Tamura
Recorded on 20 December 2006 and mixed on July 16, 2007 at Systems Two, NYC

tracks

1 Computer Virus 2:13
2 Chilly Wind 6:47
3 Back And Forth 4:52
4 Night Came In Manhattan 2:24
5 Chinese Kitchen 4:11
6 Multiple Personalities 6:57
7 Opera By Rats 5:17
8 Alligators Running In The Sewers 5:39
9 Soldier's Depression 6:26
10 One Equation 6:57
11 Cloudy Then Sunny 4:21


 
.log
X Lossless Decoder version 20130602 (143.2)
XLD extraction logfile from 2013-06-17 15:01:17 +0400
Junk Box / Cloudy then Sunny
Used drive : HL-DT-ST DVDRW GX30N (revision RP09)
Media type : Pressed CD
Ripper mode : XLD Secure Ripper
Disable audio cache : OK for the drive with a cache less than 1375KiB
Make use of C2 pointers : NO
Read offset correction : 6
Max retry count : 100
Gap status : Analyzed, Appended (except HTOA)
TOC of the extracted CD
Track | Start | Length | Start sector | End sector
---------------------------------------------------------
1 | 00:00:00 | 02:13:50 | 0 | 10024
2 | 02:13:50 | 06:46:46 | 10025 | 40520
3 | 09:00:21 | 04:51:74 | 40521 | 62419
4 | 13:52:20 | 02:23:37 | 62420 | 73181
5 | 16:15:57 | 04:10:42 | 73182 | 91973
6 | 20:26:24 | 06:56:44 | 91974 | 123217
7 | 27:22:68 | 05:16:70 | 123218 | 146987
8 | 32:39:63 | 05:38:48 | 146988 | 172385
9 | 38:18:36 | 06:26:36 | 172386 | 201371
10 | 44:44:72 | 06:56:46 | 201372 | 232617
11 | 51:41:43 | 04:20:58 | 232618 | 252175
AccurateRip Summary (DiscID: 001577a0-00beb2ae-8b0d220b)
Track 01 : OK (v1, confidence 1/1)
Track 02 : OK (v1, confidence 1/1)
Track 03 : OK (v1, confidence 1/1)
Track 04 : OK (v1, confidence 1/1)
Track 05 : OK (v1, confidence 1/1)
Track 06 : OK (v1, confidence 1/1)
Track 07 : OK (v1, confidence 1/1)
Track 08 : OK (v1, confidence 1/1)
Track 09 : OK (v1, confidence 1/1)
Track 10 : OK (v1, confidence 1/1)
Track 11 : OK (v1, confidence 1/1)
->All tracks accurately ripped.
All Tracks
Album gain : -4.97 dB
Peak : 1.000000
Statistics
Read error : 0
Jitter error (maybe fixed) : 0
Retry sector count : 0
Damaged sector count : 0
Track 01
Filename : /Users/anch/Music/FLAC/Junk Box - 2008 - Cloudy then Sunny [MP3 320]/01 - Computer Virus(1).mp3
/Users/anch/Music/FLAC/Junk Box - 2008 - Cloudy then Sunny [MP3 V0]/01 - Computer Virus.mp3
/Users/anch/Music/FLAC/Junk Box - 2008 - Cloudy then Sunny [FLAC]/01 - Computer Virus.flac
Pre-gap length : 00:02:00
Track gain : -5.89 dB
Peak : 1.000000
CRC32 hash (test run) : 921D2F83
CRC32 hash : 921D2F83
CRC32 hash (skip zero) : 56008638
AccurateRip v1 signature : CBA1F8BF
AccurateRip v2 signature : 07835382
->Accurately ripped (v1, confidence 1/1)
Statistics
Read error : 0
Jitter error (maybe fixed) : 0
Retry sector count : 0
Damaged sector count : 0
Track 02
Filename : /Users/anch/Music/FLAC/Junk Box - 2008 - Cloudy then Sunny [MP3 320]/02 - Chilly Wind(1).mp3
/Users/anch/Music/FLAC/Junk Box - 2008 - Cloudy then Sunny [MP3 V0]/02 - Chilly Wind.mp3
/Users/anch/Music/FLAC/Junk Box - 2008 - Cloudy then Sunny [FLAC]/02 - Chilly Wind.flac
Track gain : -5.51 dB
Peak : 1.000000
CRC32 hash (test run) : C6FAE08E
CRC32 hash : C6FAE08E
CRC32 hash (skip zero) : 080AD01C
AccurateRip v1 signature : 4601F651
AccurateRip v2 signature : 0954F4AC
->Accurately ripped (v1, confidence 1/1)
Statistics
Read error : 0
Jitter error (maybe fixed) : 0
Retry sector count : 0
Damaged sector count : 0
Track 03
Filename : /Users/anch/Music/FLAC/Junk Box - 2008 - Cloudy then Sunny [MP3 320]/03 - Back and Forth(1).mp3
/Users/anch/Music/FLAC/Junk Box - 2008 - Cloudy then Sunny [MP3 V0]/03 - Back and Forth.mp3
/Users/anch/Music/FLAC/Junk Box - 2008 - Cloudy then Sunny [FLAC]/03 - Back and Forth.flac
Track gain : -2.99 dB
Peak : 1.000000
CRC32 hash (test run) : 889AE89F
CRC32 hash : 889AE89F
CRC32 hash (skip zero) : C13EDFB0
AccurateRip v1 signature : 07A363B4
AccurateRip v2 signature : 5691D7D6
->Accurately ripped (v1, confidence 1/1)
Statistics
Read error : 0
Jitter error (maybe fixed) : 0
Retry sector count : 0
Damaged sector count : 0
Track 04
Filename : /Users/anch/Music/FLAC/Junk Box - 2008 - Cloudy then Sunny [MP3 320]/04 - Night Came in Manhattan(1).mp3
/Users/anch/Music/FLAC/Junk Box - 2008 - Cloudy then Sunny [MP3 V0]/04 - Night Came in Manhattan.mp3
/Users/anch/Music/FLAC/Junk Box - 2008 - Cloudy then Sunny [FLAC]/04 - Night Came in Manhattan.flac
Track gain : -1.78 dB
Peak : 1.000000
CRC32 hash (test run) : 6DE684C1
CRC32 hash : 6DE684C1
CRC32 hash (skip zero) : 17A80ADE
AccurateRip v1 signature : 9504205B
AccurateRip v2 signature : EF8F23C1
->Accurately ripped (v1, confidence 1/1)
Statistics
Read error : 0
Jitter error (maybe fixed) : 0
Retry sector count : 0
Damaged sector count : 0
Track 05
Filename : /Users/anch/Music/FLAC/Junk Box - 2008 - Cloudy then Sunny [MP3 320]/05 - Chinese Kitchen(1).mp3
/Users/anch/Music/FLAC/Junk Box - 2008 - Cloudy then Sunny [MP3 V0]/05 - Chinese Kitchen.mp3
/Users/anch/Music/FLAC/Junk Box - 2008 - Cloudy then Sunny [FLAC]/05 - Chinese Kitchen.flac
Track gain : -5.73 dB
Peak : 1.000000
CRC32 hash (test run) : 886D39AE
CRC32 hash : 886D39AE
CRC32 hash (skip zero) : 2B9E6773
AccurateRip v1 signature : 36043485
AccurateRip v2 signature : BA907621
->Accurately ripped (v1, confidence 1/1)
Statistics
Read error : 0
Jitter error (maybe fixed) : 0
Retry sector count : 0
Damaged sector count : 0
Track 06
Filename : /Users/anch/Music/FLAC/Junk Box - 2008 - Cloudy then Sunny [MP3 320]/06 - Multiple Personalities(1).mp3
/Users/anch/Music/FLAC/Junk Box - 2008 - Cloudy then Sunny [MP3 V0]/06 - Multiple Personalities.mp3
/Users/anch/Music/FLAC/Junk Box - 2008 - Cloudy then Sunny [FLAC]/06 - Multiple Personalities.flac
Track gain : -0.81 dB
Peak : 1.000000
CRC32 hash (test run) : FBB8F216
CRC32 hash : FBB8F216
CRC32 hash (skip zero) : 31F654FC
AccurateRip v1 signature : 25813D76
AccurateRip v2 signature : DC8078AD
->Accurately ripped (v1, confidence 1/1)
Statistics
Read error : 0
Jitter error (maybe fixed) : 0
Retry sector count : 0
Damaged sector count : 0
Track 07
Filename : /Users/anch/Music/FLAC/Junk Box - 2008 - Cloudy then Sunny [MP3 320]/07 - Opera by Rats(1).mp3
/Users/anch/Music/FLAC/Junk Box - 2008 - Cloudy then Sunny [MP3 V0]/07 - Opera by Rats.mp3
/Users/anch/Music/FLAC/Junk Box - 2008 - Cloudy then Sunny [FLAC]/07 - Opera by Rats.flac
Track gain : -4.75 dB
Peak : 1.000000
CRC32 hash (test run) : B07C4B2F
CRC32 hash : B07C4B2F
CRC32 hash (skip zero) : 7E747ACE
AccurateRip v1 signature : 6424C8C7
AccurateRip v2 signature : 88608E70
->Accurately ripped (v1, confidence 1/1)
Statistics
Read error : 0
Jitter error (maybe fixed) : 0
Retry sector count : 0
Damaged sector count : 0
Track 08
Filename : /Users/anch/Music/FLAC/Junk Box - 2008 - Cloudy then Sunny [MP3 320]/08 - Alligators Running in the Sewers(1).mp3
/Users/anch/Music/FLAC/Junk Box - 2008 - Cloudy then Sunny [MP3 V0]/08 - Alligators Running in the Sewers.mp3
/Users/anch/Music/FLAC/Junk Box - 2008 - Cloudy then Sunny [FLAC]/08 - Alligators Running in the Sewers.flac
Track gain : -3.46 dB
Peak : 1.000000
CRC32 hash (test run) : 7C81E604
CRC32 hash : 7C81E604
CRC32 hash (skip zero) : 02536237
AccurateRip v1 signature : DEBAF85F
AccurateRip v2 signature : F8B03DCA
->Accurately ripped (v1, confidence 1/1)
Statistics
Read error : 0
Jitter error (maybe fixed) : 0
Retry sector count : 0
Damaged sector count : 0
Track 09
Filename : /Users/anch/Music/FLAC/Junk Box - 2008 - Cloudy then Sunny [MP3 320]/09 - Solidier's Depression(1).mp3
/Users/anch/Music/FLAC/Junk Box - 2008 - Cloudy then Sunny [MP3 V0]/09 - Solidier's Depression.mp3
/Users/anch/Music/FLAC/Junk Box - 2008 - Cloudy then Sunny [FLAC]/09 - Solidier's Depression.flac
Track gain : -7.61 dB
Peak : 1.000000
CRC32 hash (test run) : 25E698BF
CRC32 hash : 25E698BF
CRC32 hash (skip zero) : 90D21645
AccurateRip v1 signature : 89EC78FC
AccurateRip v2 signature : 2D89BA27
->Accurately ripped (v1, confidence 1/1)
Statistics
Read error : 0
Jitter error (maybe fixed) : 0
Retry sector count : 0
Damaged sector count : 0
Track 10
Filename : /Users/anch/Music/FLAC/Junk Box - 2008 - Cloudy then Sunny [MP3 320]/10 - One Equation(1).mp3
/Users/anch/Music/FLAC/Junk Box - 2008 - Cloudy then Sunny [MP3 V0]/10 - One Equation.mp3
/Users/anch/Music/FLAC/Junk Box - 2008 - Cloudy then Sunny [FLAC]/10 - One Equation.flac
Track gain : -3.51 dB
Peak : 1.000000
CRC32 hash (test run) : E3C681F8
CRC32 hash : E3C681F8
CRC32 hash (skip zero) : ABCD0FCF
AccurateRip v1 signature : D61B8900
AccurateRip v2 signature : EC52FD69
->Accurately ripped (v1, confidence 1/1)
Statistics
Read error : 0
Jitter error (maybe fixed) : 0
Retry sector count : 0
Damaged sector count : 0
Track 11
Filename : /Users/anch/Music/FLAC/Junk Box - 2008 - Cloudy then Sunny [MP3 320]/11 - Cloudy then Sunny(1).mp3
/Users/anch/Music/FLAC/Junk Box - 2008 - Cloudy then Sunny [MP3 V0]/11 - Cloudy then Sunny.mp3
/Users/anch/Music/FLAC/Junk Box - 2008 - Cloudy then Sunny [FLAC]/11 - Cloudy then Sunny.flac
Track gain : -4.32 dB
Peak : 1.000000
CRC32 hash (test run) : 1AD282A8
CRC32 hash : 1AD282A8
CRC32 hash (skip zero) : 7F206FF5
AccurateRip v1 signature : 1E829B82
AccurateRip v2 signature : D0F8FF72
->Accurately ripped (v1, confidence 1/1)
Statistics
Read error : 0
Jitter error (maybe fixed) : 0
Retry sector count : 0
Damaged sector count : 0
No errors occurred
End of status report
 
.cue
TITLE "Cloudy then Sunny"
PERFORMER "Junk Box"
REM GENRE "Free Jazz"
REM DATE "2008"
REM DISCNUMBER 1
REM TOTALDISCS 1
REM DISCID 8B0D220B
REM REPLAYGAIN_ALBUM_GAIN -4.97 dB
REM REPLAYGAIN_ALBUM_PEAK 1.000000
FILE "01 - Computer Virus.flac" WAVE
TRACK 01 AUDIO
TITLE "Computer Virus"
PERFORMER "Junk Box"
REM REPLAYGAIN_TRACK_GAIN -5.89 dB
REM REPLAYGAIN_TRACK_PEAK 1.000000
INDEX 01 00:00:00
FILE "02 - Chilly Wind.flac" WAVE
TRACK 02 AUDIO
TITLE "Chilly Wind"
PERFORMER "Junk Box"
REM REPLAYGAIN_TRACK_GAIN -5.51 dB
REM REPLAYGAIN_TRACK_PEAK 1.000000
INDEX 01 00:00:00
FILE "03 - Back and Forth.flac" WAVE
TRACK 03 AUDIO
TITLE "Back and Forth"
PERFORMER "Junk Box"
REM REPLAYGAIN_TRACK_GAIN -2.99 dB
REM REPLAYGAIN_TRACK_PEAK 1.000000
INDEX 01 00:00:00
FILE "04 - Night Came in Manhattan.flac" WAVE
TRACK 04 AUDIO
TITLE "Night Came in Manhattan"
PERFORMER "Junk Box"
REM REPLAYGAIN_TRACK_GAIN -1.78 dB
REM REPLAYGAIN_TRACK_PEAK 1.000000
INDEX 01 00:00:00
FILE "05 - Chinese Kitchen.flac" WAVE
TRACK 05 AUDIO
TITLE "Chinese Kitchen"
PERFORMER "Junk Box"
REM REPLAYGAIN_TRACK_GAIN -5.73 dB
REM REPLAYGAIN_TRACK_PEAK 1.000000
INDEX 01 00:00:00
FILE "06 - Multiple Personalities.flac" WAVE
TRACK 06 AUDIO
TITLE "Multiple Personalities"
PERFORMER "Junk Box"
REM REPLAYGAIN_TRACK_GAIN -0.81 dB
REM REPLAYGAIN_TRACK_PEAK 1.000000
INDEX 01 00:00:00
FILE "07 - Opera by Rats.flac" WAVE
TRACK 07 AUDIO
TITLE "Opera by Rats"
PERFORMER "Junk Box"
REM REPLAYGAIN_TRACK_GAIN -4.75 dB
REM REPLAYGAIN_TRACK_PEAK 1.000000
INDEX 01 00:00:00
FILE "08 - Alligators Running in the Sewers.flac" WAVE
TRACK 08 AUDIO
TITLE "Alligators Running in the Sewers"
PERFORMER "Junk Box"
REM REPLAYGAIN_TRACK_GAIN -3.46 dB
REM REPLAYGAIN_TRACK_PEAK 1.000000
INDEX 01 00:00:00
FILE "09 - Solidier's Depression.flac" WAVE
TRACK 09 AUDIO
TITLE "Solidier's Depression"
PERFORMER "Junk Box"
REM REPLAYGAIN_TRACK_GAIN -7.61 dB
REM REPLAYGAIN_TRACK_PEAK 1.000000
INDEX 01 00:00:00
FILE "10 - One Equation.flac" WAVE
TRACK 10 AUDIO
TITLE "One Equation"
PERFORMER "Junk Box"
REM REPLAYGAIN_TRACK_GAIN -3.51 dB
REM REPLAYGAIN_TRACK_PEAK 1.000000
INDEX 01 00:00:00
FILE "11 - Cloudy then Sunny.flac" WAVE
TRACK 11 AUDIO
TITLE "Cloudy then Sunny"
PERFORMER "Junk Box"
REM REPLAYGAIN_TRACK_GAIN -4.32 dB
REM REPLAYGAIN_TRACK_PEAK 1.000000
INDEX 01 00:00:00
 
.accurip
[CUETools log; Date: 14/11/14 08:12:39; Version: 2.1.4]
[AccurateRip ID: 001577a0-00beb2ae-8b0d220b] found.
Track [ CRC | V2 ] Status
01 [cba1f8bf|07835382] (1+0/1) Accurately ripped
02 [4601f651|0954f4ac] (1+0/1) Accurately ripped
03 [07a363b4|5691d7d6] (1+0/1) Accurately ripped
04 [9504205b|ef8f23c1] (1+0/1) Accurately ripped
05 [36043485|ba907621] (1+0/1) Accurately ripped
06 [25813d76|dc8078ad] (1+0/1) Accurately ripped
07 [6424c8c7|88608e70] (1+0/1) Accurately ripped
08 [debaf85f|f8b03dca] (1+0/1) Accurately ripped
09 [89ec78fc|2d89ba27] (1+0/1) Accurately ripped
10 [d61b8900|ec52fd69] (1+0/1) Accurately ripped
11 [1e829b82|d0f8ff72] (1+0/1) Accurately ripped
Track Peak [ CRC32 ] [W/O NULL]
-- 100.0 [585010D2] [3B82B173]
01 100.0 [921D2F83] [56008638]
02 100.0 [C6FAE08E] [080AD01C]
03 100.0 [889AE89F] [C13EDFB0]
04 100.0 [6DE684C1] [17A80ADE]
05 100.0 [886D39AE] [2B9E6773]
06 100.0 [FBB8F216] [31F654FC]
07 100.0 [B07C4B2F] [7E747ACE]
08 100.0 [7C81E604] [02536237]
09 100.0 [25E698BF] [90D21645]
10 100.0 [E3C681F8] [ABCD0FCF]
11 100.0 [1AD282A8] [7F206FF5]

Junk Box (Satoko Fujii, Natsuki Tamura, John Hollenbeck) - Fragment [Libra Records] 2006
другие релизы
По всем вопросам пишите личное сообщение пользователю M0p94ok.
05:57
166
Нет комментариев. Ваш будет первым!