Вы используете незарегистрированную версию компонента "Вкладки"!

Поиск

(Free Jazz) [CD] The Wally Shoup / Jeph Jerman Duo - Rescue Mission - 2001, FLAC (image+.cue), lossless

(Free Jazz) [CD] The Wally Shoup / Jeph Jerman Duo - Rescue Mission - 2001, FLAC (image+.cue), lossless
Треклист:
The Wally Shoup, Jeph Jerman Duo / Rescue Mission
Жанр: Free Jazz
Носитель: CD
Страна-производитель диска (релиза): US
Год издания: 2001
Издатель (лейбл): Shrat Field Recordings
Номер по каталогу: 9905
Аудиокодек: FLAC (*.flac)
Тип рипа: image+.cue
Битрейт аудио: lossless
Продолжительность: 38:42
Источник (релизер): bumsteel
Наличие сканов в содержимом раздачи: да
Треклист:
1. Heeding The Call 9:14
2. Burrowing Out 17:03
3. Lifting Spirits / Bells (Written-By – Albert Ayler) 14:15
4. Intuiting The Integrity Path 14:15
5. Maintaining Vigil 2:30
 
Лог создания рипа
Exact Audio Copy V0.99 prebeta 5 from 4. May 2009
Отчёт EAC об извлечении, выполненном 10. июля 2014, 15:29
The Wally Shoup / Jeph Jerman Duo / Rescue Mission
Дисковод: TSSTcorpCDDVDW SH-224DB Adapter: 0 ID: 0
Режим чтения : Достоверность
Использование точного потока : Да
Отключение кэша аудио : Да
Использование указателей C2 : Нет
Коррекция смещения при чтении : 6
Способность читать области Lead-in и Lead-out : Нет
Заполнение пропущенных сэмплов тишиной : Да
Удаление блоков с тишиной в начале и конце : Нет
При вычислениях CRC использовались нулевые сэмплы : Да
Интерфейс : Встроенный Win32-интерфейс для Win NT/2000
Выходной формат : Пользовательский кодировщик
Выбранный битрейт : 192 kBit/s
Качество : Высокий
Добавление ID3-тэга : Нет
Утилита сжатия : F:\EAC\Flac\flac.exe
Дополнительные параметры : -T "DATE=%y" -T "GENRE=%m" -8 -V %s
TOC извлечённого CD
Трек | Старт | Длительность | Начальный сектор | Конечный сектор
---------------------------------------------------------------------
1 | 0:00.00 | 9:16.19 | 0 | 41718
2 | 9:16.19 | 7:05.04 | 41719 | 73597
3 | 16:21.23 | 5:22.41 | 73598 | 97788
4 | 21:43.64 | 14:15.53 | 97789 | 161966
5 | 35:59.42 | 2:42.10 | 161967 | 174126
Характеристики диапазона извлечения и сообщения об ошибках
Выбранный диапазон
Имя файла E:\!Tr!Tr!Tr!Tr!Tr!Tr!Tr!\EAC 3\Новая папка (2)\The Wally Shoup Jeph Jerman Duo - Rescue Mission.wav
Пиковый уровень 100.0 %
Качество диапазона 100.0 %
CRC копии 53B69A07
Копирование... OK
Ошибок не произошло
Конец отчёта
 
Содержание индексной карты (.CUE)
REM GENRE Jazz
REM DATE 2001
REM DISCID 3B091105
REM COMMENT "ExactAudioCopy v0.99pb5"
PERFORMER "The Wally Shoup / Jeph Jerman Duo"
TITLE "Rescue Mission"
FILE "The Wally Shoup Jeph Jerman Duo - Rescue Mission.flac" WAVE
TRACK 01 AUDIO
TITLE "Heading the Call"
PERFORMER "The Wally Shoup / Jeph Jerman Duo"
INDEX 01 00:00:00
TRACK 02 AUDIO
TITLE "Burrowing Out"
PERFORMER "The Wally Shoup / Jeph Jerman Duo"
INDEX 00 09:15:19
INDEX 01 09:16:19
TRACK 03 AUDIO
TITLE "Lifting Spirits / Bells"
PERFORMER "The Wally Shoup / Jeph Jerman Duo"
INDEX 00 16:20:23
INDEX 01 16:21:23
TRACK 04 AUDIO
TITLE "Intuiting the Integrity Path"
PERFORMER "The Wally Shoup / Jeph Jerman Duo"
INDEX 01 21:43:64
TRACK 05 AUDIO
TITLE "Maintaining Vigil"
PERFORMER "The Wally Shoup / Jeph Jerman Duo"
INDEX 01 35:59:42
Доп. информация: Recorded live at Cafe Zeitgeist, Seattle 1/20/99
 
Состав
Drums, Percussion – Jeph Jerman
Saxophone [Alto] – Wally Shoup
По всем вопросам пишите личное сообщение пользователю M0p94ok.
14:00
175
Нет комментариев. Ваш будет первым!