Вы используете незарегистрированную версию компонента "Вкладки"!

Поиск

(Contemporary Jazz, Free Improvisation, ECM) [CD] David Torn - Only Sky - 2015, FLAC (tracks+.cue), lossless

(Contemporary Jazz, Free Improvisation, ECM) [CD] David Torn - Only Sky - 2015, FLAC (tracks+.cue), lossless
Треклист:
David Torn - Only Sky
Жанр: Contemporary Jazz, Free Improvisation, ECM
Носитель: CD
Год издания: 2015
Издатель (лейбл): ECM Records
Номер по каталогу: ECM 2433
Аудиокодек: FLAC (*.flac)
Тип рипа: tracks+.cue
Битрейт аудио: lossless
Продолжительность: 01:16:15
Источник (релизер): ruskaval
Наличие сканов в содержимом раздачи: да
Треклист:
01. At least there was nothing (7:53)
02. Spoke with folks (6:46)
03. Ok, shorty (3:21)
04. Was a cave, there... (12:43)
05. Reaching barely, sparely fraught (8:13)
06. I could almost see the room (13:26)
07. Only sky (9:16)
08. So much what (5:24)
09. A goddamned specific unbalance (9:13)
David Torn: guitar, electric oud
Recorded February 2014 at the EMPAC Concert Hall, Troy, NY and Cell Labs, NY.
 
 
Лог создания рипа
Exact Audio Copy V1.0 beta 3 from 29. August 2011
EAC extraction logfile from 16. June 2015, 10:24
David Torn / Only Sky
Used drive : TSSTcorpCDDVDW SH-224BB Adapter: 0 ID: 0
Read mode : Secure
Utilize accurate stream : Yes
Defeat audio cache : Yes
Make use of C2 pointers : No
Read offset correction : 6
Overread into Lead-In and Lead-Out : No
Fill up missing offset samples with silence : Yes
Delete leading and trailing silent blocks : No
Null samples used in CRC calculations : Yes
Used interface : Native Win32 interface for Win NT & 2000
Gap handling : Appended to previous track
Used output format : User Defined Encoder
Selected bitrate : 768 kBit/s
Quality : High
Add ID3 tag : No
Command line compressor : C:\Program Files (x86)\Exact Audio Copy\FLAC\FLAC.EXE
Additional command line options : -8 -V -T "ARTIST=%artist%" -T "TITLE=%title%" -T "ALBUM=%albumtitle%" -T "DATE=%year%" -T "TRACKNUMBER=%tracknr%" -T "TOTALTRACKS=%numtracks%" -T "GENRE=%genre%" -T "ALBUMARTIST=%albumartist%" -T "ALBUM ARTIST=%albumartist%" -T "COMMENT=EAC Secure Mode, Test & Copy, AccurateRip, FLAC -8" %source%
TOC of the extracted CD
Track | Start | Length | Start sector | End sector
---------------------------------------------------------
1 | 0:00.00 | 7:52.72 | 0 | 35471
2 | 7:52.72 | 6:46.33 | 35472 | 65954
3 | 14:39.30 | 3:20.40 | 65955 | 80994
4 | 17:59.70 | 12:42.55 | 80995 | 138199
5 | 30:42.50 | 8:12.62 | 138200 | 175161
6 | 38:55.37 | 13:26.32 | 175162 | 235643
7 | 52:21.69 | 9:16.22 | 235644 | 277365
8 | 61:38.16 | 5:23.55 | 277366 | 301645
9 | 67:01.71 | 9:13.29 | 301646 | 343149
Track 1
Filename C:\AneL\01 - At least there was nothing.wav
Pre-gap length 0:00:02.00
Peak level 92.2 %
Extraction speed 5.4 X
Track quality 100.0 %
Test CRC 4B6DBDCD
Copy CRC 4B6DBDCD
Accurately ripped (confidence 2) [A99635A9] (AR v2)
Copy OK
Track 2
Filename C:\AneL\02 - Spoke with folks.wav
Peak level 86.2 %
Extraction speed 6.2 X
Track quality 100.0 %
Test CRC CFA7C24F
Copy CRC CFA7C24F
Accurately ripped (confidence 2) [E252E5C0] (AR v2)
Copy OK
Track 3
Filename C:\AneL\03 - Ok, shorty.wav
Peak level 75.9 %
Extraction speed 4.7 X
Track quality 99.9 %
Test CRC B51E5D98
Copy CRC B51E5D98
Accurately ripped (confidence 2) [544E7658] (AR v2)
Copy OK
Track 4
Filename C:\AneL\04 - Was a cave, there....wav
Peak level 92.2 %
Extraction speed 7.6 X
Track quality 100.0 %
Test CRC F3A86E6A
Copy CRC F3A86E6A
Accurately ripped (confidence 2) [5FB516BA] (AR v2)
Copy OK
Track 5
Filename C:\AneL\05 - Reaching barely, sparely fraught.wav
Peak level 92.2 %
Extraction speed 8.2 X
Track quality 100.0 %
Test CRC B20B57C9
Copy CRC B20B57C9
Accurately ripped (confidence 2) [847D46BF] (AR v2)
Copy OK
Track 6
Filename C:\AneL\06 - I could almost see the room.wav
Peak level 92.2 %
Extraction speed 8.5 X
Track quality 99.9 %
Test CRC 07D9154F
Copy CRC 07D9154F
Accurately ripped (confidence 2) [3E9C9CCA] (AR v2)
Copy OK
Track 7
Filename C:\AneL\07 - Only sky.wav
Peak level 92.2 %
Extraction speed 9.7 X
Track quality 100.0 %
Test CRC 85666EF6
Copy CRC 85666EF6
Accurately ripped (confidence 2) [4095A241] (AR v2)
Copy OK
Track 8
Filename C:\AneL\08 - So much what.wav
Peak level 70.7 %
Extraction speed 9.5 X
Track quality 100.0 %
Test CRC 611FBE05
Copy CRC 611FBE05
Accurately ripped (confidence 2) [BE2CF215] (AR v2)
Copy OK
Track 9
Filename C:\AneL\09 - A goddamned specific unbalance.wav
Peak level 92.2 %
Extraction speed 10.4 X
Track quality 100.0 %
Test CRC 8FC331D0
Copy CRC 8FC331D0
Accurately ripped (confidence 2) [F4E263F2] (AR v2)
Copy OK
All tracks accurately ripped
No errors occurred
End of status report
==== Log checksum 37CFC8D489CEA7A88499533576DF238CFDBF291E7967B2247977487BA9749DFD ====
 
Содержание индексной карты (.CUE)
REM GENRE Ambient
REM DATE 2015
REM DISCID 6A11DF09
REM COMMENT "ExactAudioCopy v1.0b3"
PERFORMER "David Torn"
TITLE "Only Sky"
FILE "01 - At least there was nothing.wav" WAVE
TRACK 01 AUDIO
TITLE "At least there was nothing"
PERFORMER "David Torn"
INDEX 01 00:00:00
FILE "02 - Spoke with folks.wav" WAVE
TRACK 02 AUDIO
TITLE "Spoke with folks"
PERFORMER "David Torn"
INDEX 01 00:00:00
FILE "03 - Ok, shorty.wav" WAVE
TRACK 03 AUDIO
TITLE "Ok, shorty"
PERFORMER "David Torn"
INDEX 01 00:00:00
FILE "04 - Was a cave, there....wav" WAVE
TRACK 04 AUDIO
TITLE "Was a cave, there..."
PERFORMER "David Torn"
INDEX 01 00:00:00
FILE "05 - Reaching barely, sparely fraught.wav" WAVE
TRACK 05 AUDIO
TITLE "Reaching barely, sparely fraught"
PERFORMER "David Torn"
INDEX 01 00:00:00
FILE "06 - I could almost see the room.wav" WAVE
TRACK 06 AUDIO
TITLE "I could almost see the room"
PERFORMER "David Torn"
INDEX 01 00:00:00
FILE "07 - Only sky.wav" WAVE
TRACK 07 AUDIO
TITLE "Only sky"
PERFORMER "David Torn"
INDEX 01 00:00:00
FILE "08 - So much what.wav" WAVE
TRACK 08 AUDIO
TITLE "So much what"
PERFORMER "David Torn"
INDEX 01 00:00:00
FILE "09 - A goddamned specific unbalance.wav" WAVE
TRACK 09 AUDIO
TITLE "A goddamned specific unbalance"
PERFORMER "David Torn"
INDEX 01 00:00:00
По всем вопросам пишите личное сообщение пользователю M0p94ok.
13:59
181
Нет комментариев. Ваш будет первым!