Вы используете незарегистрированную версию компонента "Вкладки"!

Поиск

(Avant-Garde Jazz) [CD] Wayne Horvitz (with Bill Frisell, Bobby Previte, Elliot Sharp, Doug Wieselman, Jon Rose etc.) - This New Generation - 1987, FLAC (tracks+.cue), lossless

(Avant-Garde Jazz) [CD] Wayne Horvitz (with Bill Frisell, Bobby Previte, Elliot Sharp, Doug Wieselman, Jon Rose etc.) - This New Generation - 1987, FLAC (tracks+.cue), lossless
Треклист:
Wayne Horvitz / This New Generation
Жанр: Avant-Garde Jazz
Носитель: CD
Страна-производитель диска (релиза): USA
Год издания: 1987
Издатель (лейбл): Elektra/Asylym/Nonesuch Records
Номер по каталогу: 9 60759-2
Страна исполнителя (группы): USA
Аудиокодек: FLAC (*.flac)
Тип рипа: tracks+.cue
Битрейт аудио: lossless
Продолжительность: 50:54
Источник (релизер): gssmg7
Наличие сканов в содержимом раздачи: да
Треклист:
01. Dinner At Eight (1:43)
02. This New Generation (3:25)
03. Questions (2:34)
04. True (2:49)
05. Extra Extra (3:29)
06. Conjunction For C.B. (2:29)
07. Please Take That Train From My Door (4:31)
08. In Fields They Lay (2:38)
09. Second Line (4:10)
10. These Hard Times (4:14)
11. Danced All Night (2:31)
12. Reprise For C.B. (3:19)
13. Gravity Fails (3:36)
14. Short Of Breath (4:41)
15. The Donna Song (4:07)
 
Лог создания рипа
Exact Audio Copy V1.0 beta 2 from 29. April 2011
EAC extraction logfile from 18. June 2015, 22:38
Wayne Horvitz / This New Generation
Used drive : Optiarc DVD RW AD-5280S Adapter: 1 ID: 1
Read mode : Secure
Utilize accurate stream : Yes
Defeat audio cache : Yes
Make use of C2 pointers : No
Read offset correction : 48
Overread into Lead-In and Lead-Out : No
Fill up missing offset samples with silence : Yes
Delete leading and trailing silent blocks : No
Null samples used in CRC calculations : Yes
Used interface : Installed external ASPI interface
Gap handling : Appended to previous track
Used output format : User Defined Encoder
Selected bitrate : 128 kBit/s
Quality : High
Add ID3 tag : No
Command line compressor : C:\Program Files\FLAC\flac.exe
Additional command line options : -V -8 -T "Genre=%genre%" -T "Artist=%artist%" -T "Title=%title%" -T "Album=%albumtitle%" -T "Date=%year%" -T "Tracknumber=%tracknr%" -T "Comment=%comment%" %source%
TOC of the extracted CD
Track | Start | Length | Start sector | End sector
---------------------------------------------------------
1 | 0:00.32 | 1:44.40 | 32 | 7871
2 | 1:44.72 | 3:26.68 | 7872 | 23389
3 | 5:11.65 | 2:36.10 | 23390 | 35099
4 | 7:48.00 | 2:51.15 | 35100 | 47939
5 | 10:39.15 | 3:31.60 | 47940 | 63824
6 | 14:11.00 | 2:32.67 | 63825 | 75291
7 | 16:43.67 | 4:34.58 | 75292 | 95899
8 | 21:18.50 | 2:40.20 | 95900 | 107919
9 | 23:58.70 | 4:12.65 | 107920 | 126884
10 | 28:11.60 | 4:15.45 | 126885 | 146054
11 | 32:27.30 | 2:33.07 | 146055 | 157536
12 | 35:00.37 | 3:20.45 | 157537 | 172581
13 | 38:21.07 | 3:38.00 | 172582 | 188931
14 | 41:59.07 | 4:45.00 | 188932 | 210306
15 | 46:44.07 | 4:10.38 | 210307 | 229094
Track 1
Filename C:\Wayne Horvitz (1987) - This New Generation\01 - Dinner At Eight.wav
Pre-gap length 0:00:02.32
Peak level 80.4 %
Extraction speed 1.9 X
Track quality 100.0 %
Test CRC 578CE332
Copy CRC 578CE332
Accurately ripped (confidence 2) [708FFA9D] (AR v2)
Copy OK
Track 2
Filename C:\Wayne Horvitz (1987) - This New Generation\02 - This New Generation.wav
Pre-gap length 0:00:01.20
Peak level 96.5 %
Extraction speed 2.4 X
Track quality 100.0 %
Test CRC 90A72DCB
Copy CRC 90A72DCB
Accurately ripped (confidence 2) [B6FC31BD] (AR v2)
Copy OK
Track 3
Filename C:\Wayne Horvitz (1987) - This New Generation\03 - 3 Questions.wav
Pre-gap length 0:00:01.33
Peak level 93.3 %
Extraction speed 2.4 X
Track quality 100.0 %
Test CRC 2E8A9404
Copy CRC 2E8A9404
Accurately ripped (confidence 2) [85AADDC7] (AR v2)
Copy OK
Track 4
Filename C:\Wayne Horvitz (1987) - This New Generation\04 - True.wav
Pre-gap length 0:00:01.13
Peak level 86.0 %
Extraction speed 2.6 X
Track quality 100.0 %
Test CRC 8E1E0EDE
Copy CRC 8E1E0EDE
Accurately ripped (confidence 2) [C88FF529] (AR v2)
Copy OK
Track 5
Filename C:\Wayne Horvitz (1987) - This New Generation\05 - Extra Extra.wav
Pre-gap length 0:00:01.05
Peak level 100.0 %
Extraction speed 2.6 X
Track quality 99.9 %
Test CRC 73E0CC5F
Copy CRC 73E0CC5F
Accurately ripped (confidence 2) [6FBB9245] (AR v2)
Copy OK
Track 6
Filename C:\Wayne Horvitz (1987) - This New Generation\06 - Conjunction for C.B..wav
Pre-gap length 0:00:01.70
Peak level 79.3 %
Extraction speed 2.9 X
Track quality 100.0 %
Test CRC 259F9D79
Copy CRC 259F9D79
Accurately ripped (confidence 2) [D47F7B8E] (AR v2)
Copy OK
Track 7
Filename C:\Wayne Horvitz (1987) - This New Generation\07 - Please Take That Train from My Door.wav
Pre-gap length 0:00:02.60
Peak level 64.2 %
Extraction speed 3.4 X
Track quality 100.0 %
Test CRC 27646561
Copy CRC 27646561
Accurately ripped (confidence 2) [EA80590A] (AR v2)
Copy OK
Track 8
Filename C:\Wayne Horvitz (1987) - This New Generation\08 - In Fields They Lay.wav
Pre-gap length 0:00:02.38
Peak level 71.6 %
Extraction speed 3.2 X
Track quality 100.0 %
Test CRC C1443714
Copy CRC C1443714
Accurately ripped (confidence 2) [23E18E8D] (AR v2)
Copy OK
Track 9
Filename C:\Wayne Horvitz (1987) - This New Generation\09 - Second Line.wav
Pre-gap length 0:00:01.08
Peak level 73.4 %
Extraction speed 3.6 X
Track quality 100.0 %
Test CRC 4F9FEC91
Copy CRC 4F9FEC91
Accurately ripped (confidence 2) [881AFA56] (AR v2)
Copy OK
Track 10
Filename C:\Wayne Horvitz (1987) - This New Generation\10 - These Hard Times.wav
Pre-gap length 0:00:00.55
Peak level 86.5 %
Extraction speed 3.4 X
Track quality 99.9 %
Test CRC C8B8FE31
Copy CRC C8B8FE31
Accurately ripped (confidence 2) [98E72C4B] (AR v2)
Copy OK
Track 11
Filename C:\Wayne Horvitz (1987) - This New Generation\11 - Danced All Night.wav
Pre-gap length 0:00:00.45
Peak level 65.9 %
Extraction speed 3.7 X
Track quality 100.0 %
Test CRC 6AA07AE5
Copy CRC 6AA07AE5
Accurately ripped (confidence 2) [1FB4B365] (AR v2)
Copy OK
Track 12
Filename C:\Wayne Horvitz (1987) - This New Generation\12 - Reprise for C.B..wav
Pre-gap length 0:00:00.60
Peak level 74.8 %
Extraction speed 4.0 X
Track quality 100.0 %
Test CRC 87ED4CC0
Copy CRC 87ED4CC0
Accurately ripped (confidence 2) [C1616E65] (AR v2)
Copy OK
Track 13
Filename C:\Wayne Horvitz (1987) - This New Generation\13 - Gravity Fails.wav
Pre-gap length 0:00:00.55
Peak level 83.8 %
Extraction speed 4.2 X
Track quality 100.0 %
Test CRC 119B2F5A
Copy CRC 119B2F5A
Accurately ripped (confidence 2) [93D57416] (AR v2)
Copy OK
Track 14
Filename C:\Wayne Horvitz (1987) - This New Generation\14 - Short of Breath.wav
Pre-gap length 0:00:01.10
Peak level 98.5 %
Extraction speed 4.5 X
Track quality 100.0 %
Test CRC 423722CF
Copy CRC 423722CF
Accurately ripped (confidence 2) [D843093D] (AR v2)
Copy OK
Track 15
Filename C:\Wayne Horvitz (1987) - This New Generation\15 - The Donna Song.wav
Pre-gap length 0:00:01.20
Peak level 51.8 %
Extraction speed 4.5 X
Track quality 100.0 %
Test CRC 37645E0D
Copy CRC 37645E0D
Accurately ripped (confidence 2) [157E3EA0] (AR v2)
Copy OK
All tracks accurately ripped
No errors occurred
End of status report
==== Log checksum 0E868EE42B95962A667012726EAE22CC4C3F796407BE11D943B25E9FECCF36D3 ====
 
Содержание индексной карты (.CUE)
REM GENRE Jazz
REM DATE 1987
REM DISCID A10BEE0F
REM COMMENT "ExactAudioCopy v1.0b2"
CATALOG 0075596075923
PERFORMER "Wayne Horvitz"
TITLE "This New Generation"
FILE "01 - Dinner At Eight.wav" WAVE
TRACK 01 AUDIO
TITLE "Dinner At Eight"
PERFORMER "Wayne Horvitz"
PREGAP 00:00:32
INDEX 01 00:00:00
TRACK 02 AUDIO
TITLE "This New Generation"
PERFORMER "Wayne Horvitz"
INDEX 00 01:43:20
FILE "02 - This New Generation.wav" WAVE
INDEX 01 00:00:00
TRACK 03 AUDIO
TITLE "3 Questions"
PERFORMER "Wayne Horvitz"
INDEX 00 03:25:35
FILE "03 - 3 Questions.wav" WAVE
INDEX 01 00:00:00
TRACK 04 AUDIO
TITLE "True"
PERFORMER "Wayne Horvitz"
INDEX 00 02:34:72
FILE "04 - True.wav" WAVE
INDEX 01 00:00:00
TRACK 05 AUDIO
TITLE "Extra Extra"
PERFORMER "Wayne Horvitz"
INDEX 00 02:50:10
FILE "05 - Extra Extra.wav" WAVE
INDEX 01 00:00:00
TRACK 06 AUDIO
TITLE "Conjunction for C.B."
PERFORMER "Wayne Horvitz"
INDEX 00 03:29:65
FILE "06 - Conjunction for C.B..wav" WAVE
INDEX 01 00:00:00
TRACK 07 AUDIO
TITLE "Please Take That Train from My Door"
PERFORMER "Wayne Horvitz"
INDEX 00 02:30:07
FILE "07 - Please Take That Train from My Door.wav" WAVE
INDEX 01 00:00:00
TRACK 08 AUDIO
TITLE "In Fields They Lay"
PERFORMER "Wayne Horvitz"
INDEX 00 04:32:20
FILE "08 - In Fields They Lay.wav" WAVE
INDEX 01 00:00:00
TRACK 09 AUDIO
TITLE "Second Line"
PERFORMER "Wayne Horvitz"
INDEX 00 02:39:12
FILE "09 - Second Line.wav" WAVE
INDEX 01 00:00:00
TRACK 10 AUDIO
TITLE "These Hard Times"
PERFORMER "Wayne Horvitz"
INDEX 00 04:12:10
FILE "10 - These Hard Times.wav" WAVE
INDEX 01 00:00:00
TRACK 11 AUDIO
TITLE "Danced All Night"
PERFORMER "Wayne Horvitz"
INDEX 00 04:15:00
FILE "11 - Danced All Night.wav" WAVE
INDEX 01 00:00:00
TRACK 12 AUDIO
TITLE "Reprise for C.B."
PERFORMER "Wayne Horvitz"
INDEX 00 02:32:22
FILE "12 - Reprise for C.B..wav" WAVE
INDEX 01 00:00:00
TRACK 13 AUDIO
TITLE "Gravity Fails"
PERFORMER "Wayne Horvitz"
INDEX 00 03:19:65
FILE "13 - Gravity Fails.wav" WAVE
INDEX 01 00:00:00
TRACK 14 AUDIO
TITLE "Short of Breath"
PERFORMER "Wayne Horvitz"
INDEX 00 03:36:65
FILE "14 - Short of Breath.wav" WAVE
INDEX 01 00:00:00
TRACK 15 AUDIO
TITLE "The Donna Song"
PERFORMER "Wayne Horvitz"
INDEX 00 04:43:55
FILE "15 - The Donna Song.wav" WAVE
INDEX 01 00:00:00
 
Доп. информация
Recorded September 1985
 
Состав
Wayne Horvitz - keyboards, drum programming, harmonica
Chris Brown - gazamba, wing (3, 6, 11, 12)
Bill Frisell - guitar (13-15)
Dave Hofstra - electric bass, tuba (7, 13-15)
Joey Peters - electronic drums (4, 10)
Bobby Previte - drums, drum programming, keyboards (13-15)
Elliot Sharp - guitars, bass (1-3, 7)
Doug Wieselman - clarinet, tenor saxophone, rhythm guitar (1, 2, 6, 7, 9, 13-15)
Robin Holcomb - keyboards (15)
Jim Mussen - emulator drums operation (7, 13)
Nica - vocals (15)
Jon Rose - unintentional cello (13)
По всем вопросам пишите личное сообщение пользователю M0p94ok.
13:58
272
Нет комментариев. Ваш будет первым!