Вы используете незарегистрированную версию компонента "Вкладки"!

Поиск

(Free Improvisation) [CD] Moodswing 3 (Hans Koch, Paul Lovens, Sabina Meyer) ‎ - Wegen Meines Beines - 2010, FLAC (image+.cue), lossless

(Free Improvisation) [CD] Moodswing 3 (Hans Koch, Paul Lovens, Sabina Meyer) ‎ - Wegen Meines Beines - 2010, FLAC (image+.cue), lossless
Треклист:
Moodswing 3 ‎ / Wegen Meines Beines
Жанр: Free Improvisation
Носитель: CD
Страна-производитель диска (релиза): Italy
Год издания: 2010
Издатель (лейбл): Rai Trade
Номер по каталогу: RTPJ 0019
Аудиокодек: FLAC (*.flac)
Тип рипа: image+.cue
Битрейт аудио: lossless
Продолжительность: 49:15
Источник (релизер): bumsteel
Наличие сканов в содержимом раздачи: да
Треклист:
1. Wegen Meines Beines Part 1 3:55
2. Wegen Meines Beines Part 2 5:48
3. Wegen Meines Beines Part 3 4:02
4. Wegen Meines Beines Part 4 1:10
5. Wegen Meines Beines Part 5 3:35
6. Wegen Meines Beines Part 6 2:35
7. Wegen Meines Beines Part 7 13:14
8. Wegen Meines Beines Part 8 8:46
9. Wegen Meines Beines Part 9 6:08
 
Лог создания рипа
Exact Audio Copy V0.99 prebeta 5 from 4. May 2009
Отчёт EAC об извлечении, выполненном 10. июля 2014, 15:17
Sabina Meyer, Hans Koch, Paul Lovens / Moodswing 3 Wegen Meines Beines
Дисковод: TSSTcorpCDDVDW SH-224DB Adapter: 0 ID: 0
Режим чтения : Достоверность
Использование точного потока : Да
Отключение кэша аудио : Да
Использование указателей C2 : Нет
Коррекция смещения при чтении : 6
Способность читать области Lead-in и Lead-out : Нет
Заполнение пропущенных сэмплов тишиной : Да
Удаление блоков с тишиной в начале и конце : Нет
При вычислениях CRC использовались нулевые сэмплы : Да
Интерфейс : Встроенный Win32-интерфейс для Win NT/2000
Выходной формат : Пользовательский кодировщик
Выбранный битрейт : 192 kBit/s
Качество : Высокий
Добавление ID3-тэга : Нет
Утилита сжатия : F:\EAC\Flac\flac.exe
Дополнительные параметры : -T "DATE=%y" -T "GENRE=%m" -8 -V %s
TOC извлечённого CD
Трек | Старт | Длительность | Начальный сектор | Конечный сектор
---------------------------------------------------------------------
1 | 0:00.00 | 3:55.19 | 0 | 17643
2 | 3:55.19 | 5:48.18 | 17644 | 43761
3 | 9:43.37 | 4:02.48 | 43762 | 61959
4 | 13:46.10 | 1:10.08 | 61960 | 67217
5 | 14:56.18 | 3:35.11 | 67218 | 83353
6 | 18:31.29 | 2:35.42 | 83354 | 95020
7 | 21:06.71 | 13:14.08 | 95021 | 154578
8 | 34:21.04 | 8:46.08 | 154579 | 194036
9 | 43:07.12 | 6:08.12 | 194037 | 221648
Характеристики диапазона извлечения и сообщения об ошибках
Выбранный диапазон
Имя файла E:\!Tr!Tr!Tr!Tr!Tr!Tr!Tr!\EAC 3\Новая папка\Sabina Meyer, Hans Koch, Paul Lovens - Moodswing 3 Wegen Meines Beines.wav
Пиковый уровень 89.3 %
Качество диапазона 100.0 %
CRC копии 821D1118
Копирование... OK
Ошибок не произошло
Конец отчёта
 
Содержание индексной карты (.CUE)
REM GENRE Jazz
REM DATE 2010
REM DISCID 850B8B09
REM COMMENT "ExactAudioCopy v0.99pb5"
PERFORMER "Sabina Meyer, Hans Koch, Paul Lovens"
TITLE "Moodswing 3 Wegen Meines Beines"
FILE "Sabina Meyer, Hans Koch, Paul Lovens - Moodswing 3 Wegen Meines Beines.flac" WAVE
TRACK 01 AUDIO
TITLE "Wegen Meines Beines part 1"
PERFORMER "Sabina Meyer, Hans Koch, Paul Lovens"
INDEX 01 00:00:00
TRACK 02 AUDIO
TITLE "Wegen Meines Beines part 2"
PERFORMER "Sabina Meyer, Hans Koch, Paul Lovens"
INDEX 00 03:53:20
INDEX 01 03:55:19
TRACK 03 AUDIO
TITLE "Wegen Meines Beines part 3"
PERFORMER "Sabina Meyer, Hans Koch, Paul Lovens"
INDEX 00 09:41:38
INDEX 01 09:43:37
TRACK 04 AUDIO
TITLE "Wegen Meines Beines part 4"
PERFORMER "Sabina Meyer, Hans Koch, Paul Lovens"
INDEX 00 13:44:11
INDEX 01 13:46:10
TRACK 05 AUDIO
TITLE "Wegen Meines Beines part 5"
PERFORMER "Sabina Meyer, Hans Koch, Paul Lovens"
INDEX 00 14:54:19
INDEX 01 14:56:18
TRACK 06 AUDIO
TITLE "Wegen Meines Beines part 6"
PERFORMER "Sabina Meyer, Hans Koch, Paul Lovens"
INDEX 00 18:29:30
INDEX 01 18:31:29
TRACK 07 AUDIO
TITLE "Wegen Meines Beines part 7"
PERFORMER "Sabina Meyer, Hans Koch, Paul Lovens"
INDEX 00 21:04:72
INDEX 01 21:06:71
TRACK 08 AUDIO
TITLE "Wegen Meines Beines part 8"
PERFORMER "Sabina Meyer, Hans Koch, Paul Lovens"
INDEX 00 34:19:05
INDEX 01 34:21:04
TRACK 09 AUDIO
TITLE "Wegen Meines Beines part 9"
PERFORMER "Sabina Meyer, Hans Koch, Paul Lovens"
INDEX 00 43:05:13
INDEX 01 43:07:12
Доп. информация: Recorded on 24 March 2009 at Goethe-Institut, Rome.
 
Состав
Bass Clarinet, Electronics, Mixed By – Hans Koch
Composed By – Hans Koch, Paul Lovens, Sabina Meyer
Drums, Percussion – Paul Lovens
Vocals – Sabina Meyer
По всем вопросам пишите личное сообщение пользователю M0p94ok.
14:01
359
Нет комментариев. Ваш будет первым!