Вы используете незарегистрированную версию компонента "Вкладки"!

Поиск

(Free Jazz) [CD] The Vandermark 5 (Ken Vandermark, Jeb Bishop, Mars Williams, Kent Kessler, Tim Mulvenna) - Single Piece Flow - 1997, FLAC (tracks+.cue), lossless

(Free Jazz) [CD] The Vandermark 5 (Ken Vandermark, Jeb Bishop, Mars Williams, Kent Kessler, Tim Mulvenna) - Single Piece Flow - 1997, FLAC (tracks+.cue), lossless
Треклист:
The Vandermark 5 / Single Piece Flow
Жанр: Free Jazz
Носитель: CD
Страна-производитель диска (релиза): US
Год издания: 1997
Издатель (лейбл): Atavistic
Номер по каталогу: ALP47CD
Аудиокодек: FLAC (*.flac)
Тип рипа: tracks+.cue
Битрейт аудио: lossless
Продолжительность: 58:11
Источник (релизер): cd
Наличие сканов в содержимом раздачи: нет
Треклист:
1. Careen (dedicated to Jackie Chan) 7:00
2. Momentum (dedicated to Alan Dawson) 7:16
3. Fence (dedicated to Robert Hendry) 7:01
4. Data Janitor (dedicated to Jim Baker) 9:42
5. The Mark Inside (dedicated to Johnny Hodges) 6:45
6. Wood-Skin-Metal (dedicated to Jerry Deupree, Chris Bowman and Lawrence Cook) 6:10
7. Billboard (dedicated to Bill Barron) 4:57
8. Limited Edition (dedicated to Gil Evans) 9:16
 
Лог создания рипа
Exact Audio Copy V1.0 beta 3 from 29. August 2011
EAC extraction logfile from 20. February 2015, 11:30
The Vandermark 5 / Single Piece Flow
Used drive : ASUS DRW-24F1ST a Adapter: 0 ID: 0
Read mode : Secure
Utilize accurate stream : Yes
Defeat audio cache : Yes
Make use of C2 pointers : No
Read offset correction : 6
Overread into Lead-In and Lead-Out : No
Fill up missing offset samples with silence : Yes
Delete leading and trailing silent blocks : No
Null samples used in CRC calculations : Yes
Used interface : Native Win32 interface for Win NT & 2000
Gap handling : Appended to previous track
Used output format : User Defined Encoder
Selected bitrate : 320 kBit/s
Quality : High
Add ID3 tag : No
Command line compressor : D:\Programs\Exact Audio Copy\Flac\flac.exe
Additional command line options : -V -8 -T "Genre=%genre%" -T "Artist=%artist%" -T "Title=%title%" -T "Album=%albumtitle%" -T "Date=%year%" -T "Tracknumber=%tracknr%" -T "Comment=%comment%" %source%
TOC of the extracted CD
Track | Start | Length | Start sector | End sector
---------------------------------------------------------
1 | 0:00.00 | 7:00.37 | 0 | 31536
2 | 7:00.37 | 7:16.38 | 31537 | 64274
3 | 14:17.00 | 7:01.60 | 64275 | 95909
4 | 21:18.60 | 9:42.65 | 95910 | 139624
5 | 31:01.50 | 6:45.70 | 139625 | 170069
6 | 37:47.45 | 6:10.30 | 170070 | 197849
7 | 43:58.00 | 4:57.50 | 197850 | 220174
8 | 48:55.50 | 9:16.24 | 220175 | 261898
Track 1
Filename D:\EAC\01 Careen.wav
Pre-gap length 0:00:02.00
Peak level 100.0 %
Extraction speed 4.7 X
Track quality 100.0 %
Test CRC 69F73E62
Copy CRC 69F73E62
Copy OK
Track 2
Filename D:\EAC\02 Momentum.wav
Peak level 100.0 %
Extraction speed 5.5 X
Track quality 100.0 %
Test CRC E16B93D8
Copy CRC E16B93D8
Copy OK
Track 3
Filename D:\EAC\03 Fence.wav
Peak level 91.7 %
Extraction speed 6.1 X
Track quality 100.0 %
Test CRC 4B55CB81
Copy CRC 4B55CB81
Copy OK
Track 4
Filename D:\EAC\04 Data Janitor.wav
Peak level 100.0 %
Extraction speed 7.0 X
Track quality 100.0 %
Test CRC 1043363C
Copy CRC 1043363C
Copy OK
Track 5
Filename D:\EAC\05 The Mark Inside.wav
Peak level 100.0 %
Extraction speed 7.3 X
Track quality 100.0 %
Test CRC AE304BA7
Copy CRC AE304BA7
Copy OK
Track 6
Filename D:\EAC\06 Wood-Skin-Metal.wav
Peak level 100.0 %
Extraction speed 7.7 X
Track quality 100.0 %
Test CRC 4953EBAA
Copy CRC 4953EBAA
Copy OK
Track 7
Filename D:\EAC\07 Billboard.wav
Peak level 100.0 %
Extraction speed 7.8 X
Track quality 100.0 %
Test CRC 5505C189
Copy CRC 5505C189
Copy OK
Track 8
Filename D:\EAC\08 Limited Edition.wav
Peak level 100.0 %
Extraction speed 8.6 X
Track quality 100.0 %
Test CRC 92B6CB7E
Copy CRC 92B6CB7E
Copy OK
No errors occurred
End of status report
==== Log checksum 326BC0AB9F90F16CAFD218D4971CC49A0618F0CBFD75ECC219687A048A8C606F ====
 
Содержание индексной карты (.CUE)
REM GENRE Jazz
REM DATE 1997
REM DISCID 710DA308
REM COMMENT "ExactAudioCopy v1.0b3"
CATALOG 0000000000000
PERFORMER "The Vandermark 5"
TITLE "Single Piece Flow"
FILE "01 Careen.wav" WAVE
TRACK 01 AUDIO
TITLE "Careen"
PERFORMER "The Vandermark 5"
INDEX 01 00:00:00
FILE "02 Momentum.wav" WAVE
TRACK 02 AUDIO
TITLE "Momentum"
PERFORMER "The Vandermark 5"
INDEX 01 00:00:00
FILE "03 Fence.wav" WAVE
TRACK 03 AUDIO
TITLE "Fence"
PERFORMER "The Vandermark 5"
INDEX 01 00:00:00
FILE "04 Data Janitor.wav" WAVE
TRACK 04 AUDIO
TITLE "Data Janitor"
PERFORMER "The Vandermark 5"
INDEX 01 00:00:00
FILE "05 The Mark Inside.wav" WAVE
TRACK 05 AUDIO
TITLE "The Mark Inside"
PERFORMER "The Vandermark 5"
INDEX 01 00:00:00
FILE "06 Wood-Skin-Metal.wav" WAVE
TRACK 06 AUDIO
TITLE "Wood-Skin-Metal"
PERFORMER "The Vandermark 5"
INDEX 01 00:00:00
FILE "07 Billboard.wav" WAVE
TRACK 07 AUDIO
TITLE "Billboard"
PERFORMER "The Vandermark 5"
INDEX 01 00:00:00
FILE "08 Limited Edition.wav" WAVE
TRACK 08 AUDIO
TITLE "Limited Edition"
PERFORMER "The Vandermark 5"
INDEX 01 00:00:00
Доп. информация: Recorded and Mixed on August 10 & 11, 1996 at the Uberstudio, Chicago.
 
Об альбоме (сборнике)
This, the first recording by the Vandermark 5, created a template for the next several releases by the band: relatively concise compositions alternating up-tempo burners with contemplative numbers, hewing to a post-Ornette Coleman approach that touched on free improv while essentially remaining fairly straightforward. Vandermark, who wrote all the compositions, is often at his best penning themes with surging, motoric riffs that, oddly enough, recall some of the driving pieces of early King Crimson. These songs, like the conclusion of "Careen" (dedicated to Jackie Chan!), have an irresistible momentum and are very solidly nailed together, providing a wonderful substructure for all manner of improvisation on top. The musicians are all up to the task, though it's Jeb Bishop (on trombone, especially) and Kent Kessler who are the real standouts, each adding that little extra bit of nuance and imagination to make the best numbers take off. But the "stars" of the album are the compositions themselves, probing and muscular, offering a fresh way through the stasis that was building in some circles of avant jazz by the mid-'90s. Pieces like "Data Janitor" are infused with an intense kind of rigor and drive themselves right to the brink of chaotic explosiveness before reining themselves in. This kind of "platform" proved pretty successful in luring many a rock fan into this more abstract music and served as a basis for much of Vandermark's work in upcoming years, both on his own and as a principal provider of compositions for the Peter Brötzmann Tentet. Single Piece Flow is a fine and accessible introduction to this talented musician's world.
 
Состав
Bass – Kent Kessler
Drums – Tim Mulvenna
Reeds – Mars Williams
Trombone, Guitar – Jeb Bishop
Written-By, Reeds, Recorded By – Ken Vandermark
По всем вопросам пишите личное сообщение пользователю M0p94ok.
09:37
157
Нет комментариев. Ваш будет первым!