Вы используете незарегистрированную версию компонента "Вкладки"!

Поиск

(Avant-Garde, Free Improvisation, Ayler Records) [CD] Didier Lasserre, Joel Grip, Niklas Barnö (Barno) - Can't Stop Snusing - 2012, FLAC (tracks+.cue), lossless

(Avant-Garde, Free Improvisation, Ayler Records) [CD] Didier Lasserre, Joel Grip, Niklas Barnö (Barno) - Can't Stop Snusing - 2012, FLAC (tracks+.cue), lossless
Треклист:
Didier Lasserre, Joel Grip, Niklas Barnö / Can't Stop Snusing
Жанр: Avant-Garde, Free Improvisation, Ayler Records
Носитель: CD
Страна-производитель диска (релиза): France
Год издания: 2012
Издатель (лейбл): Ayler Records
Номер по каталогу: AYLCD-126
Аудиокодек: FLAC (*.flac)
Тип рипа: tracks+.cue
Битрейт аудио: lossless
Продолжительность: 54:10
Источник (релизер): я
Наличие сканов в содержимом раздачи: да
Треклист:
1. Admiting 8:46
2. Believing 5:59
3. Deciding 13:49
4. Surrendering 9:16
5. Awakening 16:20
All music by Niklas Barnö, Joel Grip and Didier Lasserre.
Recorded at Ackenbush, Malakoff, France on July 11-12, 2011.
Niklas Barnö – Trumpet
Joel Grip – Bass
Didier Lasserre – Drums
 
Лог создания рипа
Exact Audio Copy V1.0 beta 4 from 7. December 2014
EAC extraction logfile from 29. January 2015, 14:38
Didier Lasserre, Joel Grip, Niklas Barnö / Can't Stop Snusing
Used drive : SlimtypeeNAU508 5 Adapter: 1 ID: 1
Read mode : Secure
Utilize accurate stream : Yes
Defeat audio cache : Yes
Make use of C2 pointers : No
Read offset correction : 6
Overread into Lead-In and Lead-Out : No
Fill up missing offset samples with silence : Yes
Delete leading and trailing silent blocks : No
Null samples used in CRC calculations : Yes
Used interface : Native Win32 interface for Win NT & 2000
Gap handling : Appended to previous track
Used output format : User Defined Encoder
Selected bitrate : 896 kBit/s
Quality : High
Add ID3 tag : No
Command line compressor : C:\Program Files (x86)\Exact Audio Copy\Flac\flac.exe
Additional command line options : -8 -V -T "ARTIST=%artist%" -T "TITLE=%title%" -T "ALBUM=%albumtitle%" -T "DATE=%year%" -T "TRACKNUMBER=%tracknr%" -T "TOTALTRACKS=%numtracks%" -T "GENRE=%genre%" -T "ALBUMARTIST=%albumartist%" -T "ALBUM ARTIST=%albumartist%" -T "COMMENT=EAC Secure Mode, Test & Copy, AccurateRip, FLAC -8" %source%
TOC of the extracted CD
Track | Start | Length | Start sector | End sector
---------------------------------------------------------
1 | 0:00.00 | 8:46.14 | 0 | 39463
2 | 8:46.14 | 5:59.08 | 39464 | 66396
3 | 14:45.22 | 13:49.11 | 66397 | 128582
4 | 28:34.33 | 9:15.68 | 128583 | 170275
5 | 37:50.26 | 16:19.45 | 170276 | 243745
Track 1
Filename C:\EAC rips\01 - Admitting.wav
Pre-gap length 0:00:02.00
Peak level 100.0 %
Extraction speed 2.1 X
Track quality 99.9 %
Test CRC BDDC599A
Copy CRC BDDC599A
Accurately ripped (confidence 2) [C6CE17A9] (AR v2)
Copy OK
Track 2
Filename C:\EAC rips\02 - Believing.wav
Pre-gap length 0:00:02.00
Peak level 100.0 %
Extraction speed 2.7 X
Track quality 100.0 %
Test CRC F2BC5910
Copy CRC F2BC5910
Accurately ripped (confidence 2) [226EFB9F] (AR v2)
Copy OK
Track 3
Filename C:\EAC rips\03 - Deciding.wav
Pre-gap length 0:00:02.00
Peak level 100.0 %
Extraction speed 3.3 X
Track quality 100.0 %
Test CRC 89BC7001
Copy CRC 89BC7001
Accurately ripped (confidence 2) [BD46AD0D] (AR v2)
Copy OK
Track 4
Filename C:\EAC rips\04 - Surrendering.wav
Pre-gap length 0:00:02.00
Peak level 100.0 %
Extraction speed 3.7 X
Track quality 100.0 %
Test CRC 36102E32
Copy CRC 36102E32
Accurately ripped (confidence 2) [41DF0F9C] (AR v2)
Copy OK
Track 5
Filename C:\EAC rips\05 - Awakening.wav
Pre-gap length 0:00:02.00
Peak level 100.0 %
Extraction speed 4.2 X
Track quality 100.0 %
Test CRC C4EBB273
Copy CRC C4EBB273
Accurately ripped (confidence 2) [5319E8B1] (AR v2)
Copy OK
All tracks accurately ripped
No errors occurred
End of status report
---- CUETools DB Plugin V2.1.4
[CTDB TOCID: YxWOrKcdPY2RO8rjeLxkugCLZds-] found
Submit result: YxWOrKcdPY2RO8rjeLxkugCLZds- has been confirmed
Track | CTDB Status
1 | (2/2) Accurately ripped
2 | (2/2) Accurately ripped
3 | (2/2) Accurately ripped
4 | (2/2) Accurately ripped
5 | (2/2) Accurately ripped
==== Log checksum FD187BF4893CF709626F2A9180DB6C81F787E0749E9528188F68E815692F7589 ====
 
Содержание индексной карты (.CUE)
REM GENRE "Ayler Records - AYLCD-126"
REM DATE 2012
REM DISCID 440CB105
REM COMMENT "ExactAudioCopy v1.0b4"
PERFORMER "Didier Lasserre, Joel Grip, Niklas Barnö"
TITLE "Can't Stop Snusing"
FILE "01 - Admitting.wav" WAVE
TRACK 01 AUDIO
TITLE "Admitting"
PERFORMER "Didier Lasserre, Joel Grip, Niklas Barnö"
INDEX 01 00:00:00
TRACK 02 AUDIO
TITLE "Believing"
PERFORMER "Didier Lasserre, Joel Grip, Niklas Barnö"
INDEX 00 08:44:14
FILE "02 - Believing.wav" WAVE
INDEX 01 00:00:00
TRACK 03 AUDIO
TITLE "Deciding"
PERFORMER "Didier Lasserre, Joel Grip, Niklas Barnö"
INDEX 00 05:57:08
FILE "03 - Deciding.wav" WAVE
INDEX 01 00:00:00
TRACK 04 AUDIO
TITLE "Surrendering"
PERFORMER "Didier Lasserre, Joel Grip, Niklas Barnö"
INDEX 00 13:47:11
FILE "04 - Surrendering.wav" WAVE
INDEX 01 00:00:00
TRACK 05 AUDIO
TITLE "Awakening"
PERFORMER "Didier Lasserre, Joel Grip, Niklas Barnö"
INDEX 00 09:13:68
FILE "05 - Awakening.wav" WAVE
INDEX 01 00:00:00
По всем вопросам пишите личное сообщение пользователю M0p94ok.
09:36
187
Нет комментариев. Ваш будет первым!