Вы используете незарегистрированную версию компонента "Вкладки"!

Поиск

(Avant-Garde Jazz, Free Improvisation) [CD] Hanuman Jazz Quartet (Fabio Martini, Marco Franceschetti, Stefano Solani, Danilo Sala) - Soundhousing - 2014, FLAC (tracks+.cue), lossless

(Avant-Garde Jazz, Free Improvisation) [CD] Hanuman Jazz Quartet (Fabio Martini, Marco Franceschetti, Stefano Solani, Danilo Sala) - Soundhousing - 2014, FLAC (tracks+.cue), lossless
Треклист:
Hanuman Jazz Quartet / Soundhousing
Жанр: Avant-Garde Jazz, Free Improvisation
Носитель: CD
Страна-производитель диска (релиза): UK
Год издания: 2014
Издатель (лейбл): Leo Records
Номер по каталогу: CD LR 691
Аудиокодек: FLAC (*.flac)
Тип рипа: tracks+.cue
Битрейт аудио: lossless
Продолжительность: 71:40
Источник (релизер): cd
Наличие сканов в содержимом раздачи: нет
Треклист:
1. Trinity Default
2. Bhurma Dreams
3. Retreat
4. Carelian
5. Indian Summer
6. Cuernavaca
7. Soundhousing
8. Pottsum
9. Todos Santos
10. The Margin
 
Лог создания рипа
Exact Audio Copy V1.0 beta 3 from 29. August 2011
EAC extraction logfile from 24. February 2015, 11:00
Hanuman Jazz Quartet / Soundhousing
Used drive : ASUS DRW-24F1ST a Adapter: 0 ID: 0
Read mode : Secure
Utilize accurate stream : Yes
Defeat audio cache : Yes
Make use of C2 pointers : No
Read offset correction : 6
Overread into Lead-In and Lead-Out : No
Fill up missing offset samples with silence : Yes
Delete leading and trailing silent blocks : No
Null samples used in CRC calculations : Yes
Used interface : Native Win32 interface for Win NT & 2000
Gap handling : Appended to previous track
Used output format : User Defined Encoder
Selected bitrate : 320 kBit/s
Quality : High
Add ID3 tag : No
Command line compressor : D:\Programs\Exact Audio Copy\Flac\flac.exe
Additional command line options : -V -8 -T "Genre=%genre%" -T "Artist=%artist%" -T "Title=%title%" -T "Album=%albumtitle%" -T "Date=%year%" -T "Tracknumber=%tracknr%" -T "Comment=%comment%" %source%
TOC of the extracted CD
Track | Start | Length | Start sector | End sector
---------------------------------------------------------
1 | 0:00.00 | 5:47.21 | 0 | 26045
2 | 5:47.21 | 8:03.42 | 26046 | 62312
3 | 13:50.63 | 7:29.25 | 62313 | 96012
4 | 21:20.13 | 9:45.55 | 96013 | 139942
5 | 31:05.68 | 7:23.41 | 139943 | 173208
6 | 38:29.34 | 6:51.27 | 173209 | 204060
7 | 45:20.61 | 8:42.53 | 204061 | 243263
8 | 54:03.39 | 6:55.20 | 243264 | 274408
9 | 60:58.59 | 5:43.59 | 274409 | 300192
10 | 66:42.43 | 4:57.57 | 300193 | 322524
Track 1
Filename D:\EAC\01 Trnity Default.wav
Pre-gap length 0:00:02.00
Peak level 97.4 %
Extraction speed 4.6 X
Track quality 99.9 %
Test CRC 84AFED81
Copy CRC 84AFED81
Copy OK
Track 2
Filename D:\EAC\02 Bhurma Dreams.wav
Pre-gap length 0:00:02.00
Peak level 96.5 %
Extraction speed 6.0 X
Track quality 100.0 %
Test CRC 38DB5981
Copy CRC 38DB5981
Copy OK
Track 3
Filename D:\EAC\03 Retreat.wav
Pre-gap length 0:00:02.00
Peak level 95.9 %
Extraction speed 6.7 X
Track quality 100.0 %
Test CRC 039B3882
Copy CRC 039B3882
Copy OK
Track 4
Filename D:\EAC\04 Carelian.wav
Pre-gap length 0:00:02.00
Peak level 97.3 %
Extraction speed 7.6 X
Track quality 100.0 %
Test CRC 9E0ECD0E
Copy CRC 9E0ECD0E
Copy OK
Track 5
Filename D:\EAC\05 Indian Summer.wav
Pre-gap length 0:00:02.00
Peak level 95.8 %
Extraction speed 7.5 X
Track quality 99.9 %
Test CRC 860B90EB
Copy CRC 860B90EB
Copy OK
Track 6
Filename D:\EAC\06 Cuernavaca.wav
Pre-gap length 0:00:02.00
Peak level 90.7 %
Extraction speed 7.8 X
Track quality 99.9 %
Test CRC FDAB7241
Copy CRC FDAB7241
Copy OK
Track 7
Filename D:\EAC\07 Soundhousing.wav
Pre-gap length 0:00:02.00
Peak level 97.9 %
Extraction speed 9.1 X
Track quality 100.0 %
Test CRC 0C856022
Copy CRC 0C856022
Copy OK
Track 8
Filename D:\EAC\08 Pottsum.wav
Pre-gap length 0:00:02.00
Peak level 95.9 %
Extraction speed 9.4 X
Track quality 100.0 %
Test CRC 8EB5F11A
Copy CRC 8EB5F11A
Copy OK
Track 9
Filename D:\EAC\09 Todos Santos.wav
Pre-gap length 0:00:02.00
Peak level 89.4 %
Extraction speed 9.5 X
Track quality 100.0 %
Test CRC 4BDA3700
Copy CRC 4BDA3700
Copy OK
Track 10
Filename D:\EAC\10 The Margin.wav
Pre-gap length 0:00:02.00
Peak level 94.1 %
Extraction speed 9.7 X
Track quality 100.0 %
Test CRC 9E87CC2A
Copy CRC 9E87CC2A
Copy OK
No errors occurred
End of status report
==== Log checksum 7CAA6AF3D8D8652D8C5A171D6409FAC726D1C7179E6A68BE643D744A8817925C ====
 
Содержание индексной карты (.CUE)
REM GENRE Jazz
REM DATE 2013
REM DISCID 7B10CC0A
REM COMMENT "ExactAudioCopy v1.0b3"
PERFORMER "Hanuman Jazz Quartet"
TITLE "Soundhousing"
FILE "01 Trnity Default.wav" WAVE
TRACK 01 AUDIO
TITLE "Trnity Default"
PERFORMER "Hanuman Jazz Quartet"
FLAGS DCP
INDEX 01 00:00:00
TRACK 02 AUDIO
TITLE "Bhurma Dreams"
PERFORMER "Hanuman Jazz Quartet"
FLAGS DCP
INDEX 00 05:45:21
FILE "02 Bhurma Dreams.wav" WAVE
INDEX 01 00:00:00
TRACK 03 AUDIO
TITLE "Retreat"
PERFORMER "Hanuman Jazz Quartet"
FLAGS DCP
INDEX 00 08:01:42
FILE "03 Retreat.wav" WAVE
INDEX 01 00:00:00
TRACK 04 AUDIO
TITLE "Carelian"
PERFORMER "Hanuman Jazz Quartet"
FLAGS DCP
INDEX 00 07:27:25
FILE "04 Carelian.wav" WAVE
INDEX 01 00:00:00
TRACK 05 AUDIO
TITLE "Indian Summer"
PERFORMER "Hanuman Jazz Quartet"
FLAGS DCP
INDEX 00 09:43:55
FILE "05 Indian Summer.wav" WAVE
INDEX 01 00:00:00
TRACK 06 AUDIO
TITLE "Cuernavaca"
PERFORMER "Hanuman Jazz Quartet"
FLAGS DCP
INDEX 00 07:21:41
FILE "06 Cuernavaca.wav" WAVE
INDEX 01 00:00:00
TRACK 07 AUDIO
TITLE "Soundhousing"
PERFORMER "Hanuman Jazz Quartet"
FLAGS DCP
INDEX 00 06:49:27
FILE "07 Soundhousing.wav" WAVE
INDEX 01 00:00:00
TRACK 08 AUDIO
TITLE "Pottsum"
PERFORMER "Hanuman Jazz Quartet"
FLAGS DCP
INDEX 00 08:40:53
FILE "08 Pottsum.wav" WAVE
INDEX 01 00:00:00
INDEX 02 05:49:72
TRACK 09 AUDIO
TITLE "Todos Santos"
PERFORMER "Hanuman Jazz Quartet"
FLAGS DCP
INDEX 00 06:53:20
FILE "09 Todos Santos.wav" WAVE
INDEX 01 00:00:00
INDEX 02 03:38:23
TRACK 10 AUDIO
TITLE "The Margin"
PERFORMER "Hanuman Jazz Quartet"
FLAGS DCP
INDEX 00 05:41:59
FILE "10 The Margin.wav" WAVE
INDEX 01 00:00:00
Доп. информация: Recorded at Webindra House, Dorzano (Italy) during 2013.
 
Об альбоме (сборнике)
One of the most innovative and original quartets of the contemporary jazz scene in Italy! Hanuman quartet produces rich, seductive and singable music unheard of since Renaissance. Hanuman creates great tunes, beautiful melodies and original improvisations: following the footprints of the militant jazz from the Sixties to contemporaries the musicians offer what might be called "art jazz" — jazz as a joyful experience, brave and funny.
 
Состав
Clarinet – Fabio Martini
Double Bass – Stefano Solani
Drums – Danilo Sala
Saxophone – Marco Franceschetti
По всем вопросам пишите личное сообщение пользователю M0p94ok.
09:37
150
Нет комментариев. Ваш будет первым!