Вы используете незарегистрированную версию компонента "Вкладки"!

Поиск

(free jazz) [cd] Don Pullen - Evidence of Things Unseen (1983), FLAC (tracks), lossless

(free jazz) [cd] Don Pullen - Evidence of Things Unseen (1983), FLAC (tracks), lossless
Треклист:
(free jazz) [cd] Don Pullen - Evidence of Things Unseen (1983), FLAC (tracks), lossless


Don Pullen - Evidence of Things Unseen (1983)

Жанр: free jazz
Год выпуска: 1983
Издатель (лейбл):Black Saint / BSR 0080
Формат: FLAC (tracks)
Битрейт аудио: lossless
Продолжительность 43`10
Источник: what.cd

tracks
1 Evidence Of Things Unseen 11:40
2 Victory Dance (For Sharon) 8:20
3 In The Beginning (For Nick) 18:40
4 Perseverance 3:00
5 Rejoice 1:04


 
.log
Exact Audio Copy V1.0 beta 4 from 7. December 2014
EAC extraction logfile from 19. June 2015, 21:50
Don Pullen / Evidence of Things Unseen
Used drive : MATSHITABD-CMB UJ160 Adapter: 1 ID: 0
Read mode : Secure
Utilize accurate stream : Yes
Defeat audio cache : Yes
Make use of C2 pointers : No
Read offset correction : 103
Overread into Lead-In and Lead-Out : No
Fill up missing offset samples with silence : Yes
Delete leading and trailing silent blocks : No
Null samples used in CRC calculations : Yes
Used interface : Native Win32 interface for Win NT & 2000
Gap handling : Appended to previous track
Used output format : User Defined Encoder
Selected bitrate : 1024 kBit/s
Quality : High
Add ID3 tag : No
Command line compressor : C:\Program Files (x86)\Exact Audio Copy\FLAC\FLAC.EXE
Additional command line options : -8 -V -T "ARTIST=%artist%" -T "TITLE=%title%" -T "ALBUM=%albumtitle%" -T "DATE=%year%" -T "TRACKNUMBER=%tracknr%" -T "GENRE=%genre%" -T "PERFORMER=%albuminterpret%" -T "COMPOSER=%composer%" %haslyrics%--tag-from-file=LYRICS="%lyricsfile%"%haslyrics% -T "ALBUMARTIST=%albumartist%" -T "DISCNUMBER=%cdnumber%" -T "TOTALDISCS=%totalcds%" -T "TOTALTRACKS=%numtracks%" -T "COMMENT=%comment%" %source% -o %dest%
TOC of the extracted CD
Track | Start | Length | Start sector | End sector
---------------------------------------------------------
1 | 0:00.00 | 11:37.41 | 0 | 52315
2 | 11:37.41 | 8:24.58 | 52316 | 90173
3 | 20:02.24 | 18:03.29 | 90174 | 171427
4 | 38:05.53 | 4:04.33 | 171428 | 189760
5 | 42:10.11 | 1:00.17 | 189761 | 194277
Track 1
Filename C:\Rips\Don Pullen - 2012 - The Complete Remastered Recordings on Black Saint & Soul Note\Don Pullen - 1983 - Evidence of Things Unseen\01 Evidence of Things Unseen.wav
Pre-gap length 0:00:02.00
Peak level 95.6 %
Extraction speed 2.7 X
Track quality 99.9 %
Test CRC C9F28006
Copy CRC C9F28006
Accurately ripped (confidence 11) [34EA5679] (AR v2)
Copy OK
Track 2
Filename C:\Rips\Don Pullen - 2012 - The Complete Remastered Recordings on Black Saint & Soul Note\Don Pullen - 1983 - Evidence of Things Unseen\02 Victory Dance.wav
Pre-gap length 0:00:11.01
Peak level 95.6 %
Extraction speed 3.5 X
Track quality 100.0 %
Test CRC 088260D2
Copy CRC 088260D2
Accurately ripped (confidence 11) [5852C67C] (AR v2)
Copy OK
Track 3
Filename C:\Rips\Don Pullen - 2012 - The Complete Remastered Recordings on Black Saint & Soul Note\Don Pullen - 1983 - Evidence of Things Unseen\03 In The Beginning.wav
Pre-gap length 0:00:07.10
Peak level 95.6 %
Extraction speed 4.3 X
Track quality 100.0 %
Test CRC E2903C20
Copy CRC E2903C20
Accurately ripped (confidence 11) [3279988A] (AR v2)
Copy OK
Track 4
Filename C:\Rips\Don Pullen - 2012 - The Complete Remastered Recordings on Black Saint & Soul Note\Don Pullen - 1983 - Evidence of Things Unseen\04 Perseverence.wav
Pre-gap length 0:00:05.34
Peak level 79.9 %
Extraction speed 4.3 X
Track quality 100.0 %
Test CRC 894D0309
Copy CRC 894D0309
Accurately ripped (confidence 11) [047F4AB1] (AR v2)
Copy OK
Track 5
Filename C:\Rips\Don Pullen - 2012 - The Complete Remastered Recordings on Black Saint & Soul Note\Don Pullen - 1983 - Evidence of Things Unseen\05 Rejoice.wav
Pre-gap length 0:00:01.69
Peak level 56.9 %
Extraction speed 3.0 X
Track quality 100.0 %
Test CRC 4E579B97
Copy CRC 4E579B97
Accurately ripped (confidence 11) [E272B9CA] (AR v2)
Copy OK
All tracks accurately ripped
No errors occurred
End of status report
---- CUETools DB Plugin V2.1.4
[CTDB TOCID: vcDMztCLIbBjijuWDK67YI5I03E-] found
Submit result: vcDMztCLIbBjijuWDK67YI5I03E- has been confirmed
Track | CTDB Status
1 | (7/7) Accurately ripped
2 | (7/7) Accurately ripped
3 | (7/7) Accurately ripped
4 | (7/7) Accurately ripped
5 | (7/7) Accurately ripped
==== Log checksum 0B2625039C80DB15583D83D1101959BF5419F9887FFEEBC2A7EC957B50773723 ====
 
.cue
REM GENRE Jazz
REM DATE 1983
REM DISCID 400A1E05
REM COMMENT "ExactAudioCopy v1.0b4"
PERFORMER "Don Pullen"
TITLE "Evidence of Things Unseen"
FILE "01 Evidence of Things Unseen.wav" WAVE
TRACK 01 AUDIO
TITLE "Evidence of Things Unseen"
PERFORMER "Don Pullen"
ISRC ITBP71158019
FLAGS DCP
INDEX 01 00:00:00
TRACK 02 AUDIO
TITLE "Victory Dance"
PERFORMER "Don Pullen"
ISRC ITBP71158020
FLAGS DCP
INDEX 00 11:26:40
FILE "02 Victory Dance.wav" WAVE
INDEX 01 00:00:00
TRACK 03 AUDIO
TITLE "In The Beginning"
PERFORMER "Don Pullen"
ISRC ITBP71158021
FLAGS DCP
INDEX 00 08:17:48
FILE "03 In The Beginning.wav" WAVE
INDEX 01 00:00:00
TRACK 04 AUDIO
TITLE "Perseverence"
PERFORMER "Don Pullen"
ISRC ITBP71158022
FLAGS DCP
INDEX 00 17:57:70
FILE "04 Perseverence.wav" WAVE
INDEX 01 00:00:00
TRACK 05 AUDIO
TITLE "Rejoice"
PERFORMER "Don Pullen"
ISRC ITBP71158023
FLAGS DCP
INDEX 00 04:02:39
FILE "05 Rejoice.wav" WAVE
INDEX 01 00:00:00

http://www.discogs.com/Don-Pullen-Evidence-Of-Things-Unseen/release/4824979
другие релизы
По всем вопросам пишите личное сообщение пользователю M0p94ok.
09:38
189
Нет комментариев. Ваш будет первым!