Поиск

(Free Jazz) [CD] The Vandermark 5 (Ken Vandermark, Dave Rempis, Jeb Bishop, Kent Kessler, Tim Mulvenna) - Simpatico - 1999, FLAC (tracks+.cue), lossless

(Free Jazz) [CD] The Vandermark 5 (Ken Vandermark, Dave Rempis, Jeb Bishop, Kent Kessler, Tim Mulvenna) - Simpatico - 1999, FLAC (tracks+.cue), lossless
Треклист:
The Vandermark 5 / Simpatico
Жанр: Free Jazz
Носитель: CD
Страна-производитель диска (релиза): US
Год издания: 1999
Издатель (лейбл): Atavistic
Номер по каталогу: ALP107CD
Аудиокодек: FLAC (*.flac)
Тип рипа: tracks+.cue
Битрейт аудио: lossless
Продолжительность: 65:35
Источник (релизер): cd
Наличие сканов в содержимом раздачи: нет
Треклист:
01. Vent 7:00
02. Fact And Fiction 8:51
03. Full Deck 5:20
04. Anywhere Else 9:58
05. STHLM 9:09
06. Cover To Cover 8:30
07. Point Blank 8:41
08. Encino 8:01
 
Лог создания рипа
Exact Audio Copy V1.0 beta 3 from 29. August 2011
EAC extraction logfile from 20. February 2015, 12:32
Vandermark 5 / Simpatico
Used drive : ASUS DRW-24F1ST a Adapter: 0 ID: 0
Read mode : Secure
Utilize accurate stream : Yes
Defeat audio cache : Yes
Make use of C2 pointers : No
Read offset correction : 6
Overread into Lead-In and Lead-Out : No
Fill up missing offset samples with silence : Yes
Delete leading and trailing silent blocks : No
Null samples used in CRC calculations : Yes
Used interface : Native Win32 interface for Win NT & 2000
Gap handling : Appended to previous track
Used output format : User Defined Encoder
Selected bitrate : 320 kBit/s
Quality : High
Add ID3 tag : No
Command line compressor : D:\Programs\Exact Audio Copy\Flac\flac.exe
Additional command line options : -V -8 -T "Genre=%genre%" -T "Artist=%artist%" -T "Title=%title%" -T "Album=%albumtitle%" -T "Date=%year%" -T "Tracknumber=%tracknr%" -T "Comment=%comment%" %source%
TOC of the extracted CD
Track | Start | Length | Start sector | End sector
---------------------------------------------------------
1 | 0:00.00 | 7:00.39 | 0 | 31538
2 | 7:00.39 | 8:51.72 | 31539 | 71435
3 | 15:52.36 | 5:20.57 | 71436 | 95492
4 | 21:13.18 | 9:58.18 | 95493 | 140360
5 | 31:11.36 | 9:09.69 | 140361 | 181604
6 | 40:21.30 | 8:30.47 | 181605 | 219901
7 | 48:52.02 | 8:41.50 | 219902 | 259026
8 | 57:33.52 | 8:01.49 | 259027 | 295150
Track 1
Filename D:\EAC\01 Vent.wav
Pre-gap length 0:00:02.00
Peak level 99.5 %
Extraction speed 4.7 X
Track quality 100.0 %
Test CRC 692C60F4
Copy CRC 692C60F4
Copy OK
Track 2
Filename D:\EAC\02 Fact and Fiction.wav
Pre-gap length 0:00:03.03
Peak level 99.5 %
Extraction speed 5.7 X
Track quality 100.0 %
Test CRC 1EA90218
Copy CRC 1EA90218
Copy OK
Track 3
Filename D:\EAC\03 Full Deck.wav
Pre-gap length 0:00:03.41
Peak level 99.6 %
Extraction speed 6.1 X
Track quality 100.0 %
Test CRC 7C2984D9
Copy CRC 7C2984D9
Copy OK
Track 4
Filename D:\EAC\04 Anywhere Else.wav
Pre-gap length 0:00:03.53
Peak level 99.0 %
Extraction speed 6.7 X
Track quality 99.9 %
Test CRC CAA2755D
Copy CRC CAA2755D
Copy OK
Track 5
Filename D:\EAC\05 STHLM.wav
Pre-gap length 0:00:03.20
Peak level 98.6 %
Extraction speed 7.8 X
Track quality 100.0 %
Test CRC 8D271CA6
Copy CRC 8D271CA6
Copy OK
Track 6
Filename D:\EAC\06 Cover to Cover.wav
Pre-gap length 0:00:03.57
Peak level 98.7 %
Extraction speed 7.7 X
Track quality 99.9 %
Test CRC 683A6359
Copy CRC 683A6359
Copy OK
Track 7
Filename D:\EAC\07 Point Blank.wav
Pre-gap length 0:00:03.57
Peak level 99.3 %
Extraction speed 8.7 X
Track quality 100.0 %
Test CRC D1184F91
Copy CRC D1184F91
Copy OK
Track 8
Filename D:\EAC\08 Encino.wav
Pre-gap length 0:00:03.55
Peak level 98.6 %
Extraction speed 9.1 X
Track quality 100.0 %
Test CRC B095748D
Copy CRC B095748D
Copy OK
No errors occurred
End of status report
==== Log checksum 9D35A56DEED3FF25E4C74E471D4D8FC6ABC9AC9248BAD6775379D9F1BEF9DA38 ====
 
Содержание индексной карты (.CUE)
REM GENRE Jazz
REM DATE 1999
REM DISCID 6C0F5F08
REM COMMENT "ExactAudioCopy v1.0b3"
PERFORMER "Vandermark 5"
TITLE "Simpatico"
FILE "01 Vent.wav" WAVE
TRACK 01 AUDIO
TITLE "Vent"
PERFORMER "Vandermark 5"
INDEX 01 00:00:00
TRACK 02 AUDIO
TITLE "Fact and Fiction"
PERFORMER "Vandermark 5"
INDEX 00 06:57:36
FILE "02 Fact and Fiction.wav" WAVE
INDEX 01 00:00:00
TRACK 03 AUDIO
TITLE "Full Deck"
PERFORMER "Vandermark 5"
INDEX 00 08:48:31
FILE "03 Full Deck.wav" WAVE
INDEX 01 00:00:00
TRACK 04 AUDIO
TITLE "Anywhere Else"
PERFORMER "Vandermark 5"
INDEX 00 05:17:04
FILE "04 Anywhere Else.wav" WAVE
INDEX 01 00:00:00
TRACK 05 AUDIO
TITLE "STHLM"
PERFORMER "Vandermark 5"
INDEX 00 09:54:73
FILE "05 STHLM.wav" WAVE
INDEX 01 00:00:00
TRACK 06 AUDIO
TITLE "Cover to Cover"
PERFORMER "Vandermark 5"
INDEX 00 09:06:12
FILE "06 Cover to Cover.wav" WAVE
INDEX 01 00:00:00
TRACK 07 AUDIO
TITLE "Point Blank"
PERFORMER "Vandermark 5"
INDEX 00 08:26:65
FILE "07 Point Blank.wav" WAVE
INDEX 01 00:00:00
TRACK 08 AUDIO
TITLE "Encino"
PERFORMER "Vandermark 5"
INDEX 00 08:37:70
FILE "08 Encino.wav" WAVE
INDEX 01 00:00:00
Доп. информация: Recorded at Airwave Studios, Chicago, IL on December 12 & 13, 1998.
 
Об альбоме (сборнике)
The Vandermark 5 are remarkable on their third recording. Reedmen Ken Vandermark and Dave Rempis are joined by trombonist/guitarist Jeb Bishop, Kent Kessler on bass, and drummer Tim Mulvenna in making some of the most exciting new jazz in the world today. Using American jazzmen for their spiritual inspiration and the European model of free jazz improv, Vandermark and company have come up with something entirely their own: a solid, gritty, soulful funk and squall band who holds within their collective grasp the souls of Sun Ra, Steve Lacy, Albert Ayler, and James Brown's JBs. The eight tunes on Simpatico are all tributes to various jazz and improv greats who have been influential to Vandermark in one way or another. There's the sleet-sheet skronk of "Vent," with Bishop's guitar creating an edgy tension for the horns to play in counterpoint to the rhythm section. In "Fact or Fiction (For Curtis Counce)," the spirit of Les Koenig's Contemporary Records is evoked with its open-wristed swing and minor modes that land just this side of blue. "Point Blank (For Frank Rosalino)" has the bass clarinet solo actually touch on Rosalino's own sense of harmonic architecture, growing out from E-flat into a spider web angularity that embraces the bop arpeggio technique as well as Eric Dolphy's sense of spatial breath. By the time listeners get to Bishop's trombone solo, the entire axis of harmony has been shifted to an imploding sense of phraseology versus teleology and linguistic exchange. What is taking place in the improv is that the three horn players are fighting over Rosalino's clipped modalism. Simpatico is the finest movement yet from a band who seems to be just getting started.
 
Состав
Kent Kessler: Bass
Tim Mulvenna: Drums
Ken Vandermark: Saxophone, Clarinet
Dave Rempis: Saxophone
Jeb Bishop: Trombone, Guitar
По всем вопросам пишите личное сообщение пользователю M0p94ok.
09:39
180
Нет комментариев. Ваш будет первым!