Вы используете незарегистрированную версию компонента "Вкладки"!

Поиск

(free jazz) [CD] The Resonance Ensemble ( Vandermark, Zimpel,Trzaska, Swell etc...) - Kafka in Flight 2009, FLAC (tracks+.cue), lossless

(free jazz) [CD] The Resonance Ensemble ( Vandermark, Zimpel,Trzaska, Swell etc...) - Kafka in Flight 2009, FLAC (tracks+.cue), lossless
Треклист:


The Resonance Ensemble - Kafka in Flight 2009

Жанр: free jazz
Год выпуска: 2009
Издатель (лейбл): Not Two Records / MW 860-2
Формат: FLAC (tracks+.cue)
Битрейт аудио: lossless
Продолжительность
Источник: what.cd, 6060842
Ken Vandermark: tenor saxophone, Bb clarinet
Wacław Zimpel: bass clarinet, Bb clarinet, tarogato
Mikolaj Trzaska: alto saxophone, bass clarinet
Steve Swell: trombone
Dave Rempis: tenor saxophone, alto saxophone
Per-Åke Holmlander: tuba
Magnus Broo: trumpet
Mark Tokar: bass
Tim Daisy: drums
Michael Zerang: drums, percussion

tracks
1. The Pier (for Yutaka Takanashi) (20:18)
2. Rope (for Don Ellis) (17:44)
3. Coal Marker (for Chris Marker) (22:51)


 
.log
X Lossless Decoder version 20131102 (145.0)
XLD extraction logfile from 2013-11-27 19:43:19 +0400
The Resonance Ensemble / Kafka In Flight
Used drive : HL-DT-ST DVDRW GX30N (revision RP09)
Media type : Pressed CD
Ripper mode : XLD Secure Ripper
Disable audio cache : OK for the drive with a cache less than 1375KiB
Make use of C2 pointers : NO
Read offset correction : 6
Max retry count : 100
Gap status : Analyzed, Appended (except HTOA)
TOC of the extracted CD
Track | Start | Length | Start sector | End sector
---------------------------------------------------------
1 | 00:00:00 | 20:18:25 | 0 | 91374
2 | 20:18:25 | 17:44:59 | 91375 | 171233
3 | 38:03:09 | 22:51:02 | 171234 | 274060
AccurateRip Summary (DiscID: 0008305e-001b5ab9-180e4603)
Track 01 : OK (v2, confidence 1/1)
Track 02 : OK (v2, confidence 1/1)
Track 03 : OK (v2, confidence 1/1)
->All tracks accurately ripped.
All Tracks
Album gain : -7.50 dB
Peak : 0.964996
Statistics
Read error : 0
Jitter error (maybe fixed) : 0
Retry sector count : 0
Damaged sector count : 0
Track 01
Filename : /Users/Shared/Grabbed/The Resonance Ensemble - 2009 - Kafka In Flight [MP3 320]/01 - The Pier (for Yutaka Takanashi).mp3
/Users/Shared/Grabbed/The Resonance Ensemble - 2009 - Kafka In Flight [MP3 V0]/01 - The Pier (for Yutaka Takanashi).mp3
/Users/Shared/Grabbed/The Resonance Ensemble - 2009 - Kafka In Flight [FLAC]/01 - The Pier (for Yutaka Takanashi).flac
Pre-gap length : 00:02:00
Track gain : -7.87 dB
Peak : 0.964996
CRC32 hash (test run) : 034648E8
CRC32 hash : 034648E8
CRC32 hash (skip zero) : E9E39A88
AccurateRip v1 signature : 1C8C354C
AccurateRip v2 signature : 42947652
->Accurately ripped (v2, confidence 1/1)
Statistics
Read error : 0
Jitter error (maybe fixed) : 0
Retry sector count : 0
Damaged sector count : 0
Track 02
Filename : /Users/Shared/Grabbed/The Resonance Ensemble - 2009 - Kafka In Flight [MP3 320]/02 - Rope (for Don Ellis).mp3
/Users/Shared/Grabbed/The Resonance Ensemble - 2009 - Kafka In Flight [MP3 V0]/02 - Rope (for Don Ellis).mp3
/Users/Shared/Grabbed/The Resonance Ensemble - 2009 - Kafka In Flight [FLAC]/02 - Rope (for Don Ellis).flac
Pre-gap length : 00:04:63
Track gain : -7.61 dB
Peak : 0.964996
CRC32 hash (test run) : 100B60C4
CRC32 hash : 100B60C4
CRC32 hash (skip zero) : D5ADEE2F
AccurateRip v1 signature : 9D62C13D
AccurateRip v2 signature : 118C997F
->Accurately ripped (v2, confidence 1/1)
Statistics
Read error : 0
Jitter error (maybe fixed) : 0
Retry sector count : 0
Damaged sector count : 0
Track 03
Filename : /Users/Shared/Grabbed/The Resonance Ensemble - 2009 - Kafka In Flight [MP3 320]/03 - Coal Marker (for Chris Marker).mp3
/Users/Shared/Grabbed/The Resonance Ensemble - 2009 - Kafka In Flight [MP3 V0]/03 - Coal Marker (for Chris Marker).mp3
/Users/Shared/Grabbed/The Resonance Ensemble - 2009 - Kafka In Flight [FLAC]/03 - Coal Marker (for Chris Marker).flac
Pre-gap length : 00:04:42
Track gain : -7.16 dB
Peak : 0.964996
CRC32 hash (test run) : 8FB935D1
CRC32 hash : 8FB935D1
CRC32 hash (skip zero) : 84A69202
AccurateRip v1 signature : AD0B28AA
AccurateRip v2 signature : E5BDC421
->Accurately ripped (v2, confidence 1/1)
Statistics
Read error : 0
Jitter error (maybe fixed) : 0
Retry sector count : 0
Damaged sector count : 0
No errors occurred
End of status report
-----BEGIN XLD SIGNATURE-----
T9xqNeDQrmEeJw_DL1NVfCa1.dngXH87PYrPP6_07gLwsP.uZfww_pIXb0pmXlYSg7iUkA_HXcZb6UteUQaYO0UV.ZZ90B8_WFpNI6a
-----END XLD SIGNATURE-----
 
.cue
TITLE "Kafka In Flight"
PERFORMER "The Resonance Ensemble"
REM GENRE "Free Jazz"
REM DATE "2009"
REM DISCID 180E4603
REM REPLAYGAIN_ALBUM_GAIN -7.50 dB
REM REPLAYGAIN_ALBUM_PEAK 0.964996
FILE "01 - The Pier (for Yutaka Takanashi).flac" WAVE
TRACK 01 AUDIO
TITLE "The Pier (for Yutaka Takanashi)"
PERFORMER "The Resonance Ensemble"
REM REPLAYGAIN_TRACK_GAIN -7.87 dB
REM REPLAYGAIN_TRACK_PEAK 0.964996
INDEX 01 00:00:00
TRACK 02 AUDIO
TITLE "Rope (for Don Ellis)"
PERFORMER "The Resonance Ensemble"
REM REPLAYGAIN_TRACK_GAIN -7.61 dB
REM REPLAYGAIN_TRACK_PEAK 0.964996
INDEX 00 20:13:37
FILE "02 - Rope (for Don Ellis).flac" WAVE
INDEX 01 00:00:00
TRACK 03 AUDIO
TITLE "Coal Marker (for Chris Marker)"
PERFORMER "The Resonance Ensemble"
REM REPLAYGAIN_TRACK_GAIN -7.16 dB
REM REPLAYGAIN_TRACK_PEAK 0.964996
INDEX 00 17:40:17
FILE "03 - Coal Marker (for Chris Marker).flac" WAVE
INDEX 01 00:00:00
 
.accurip
[CUETools log; Date: 16/01/14 13:13:10; Version: 2.1.4]
[CTDB TOCID: MJttNNW1Eln7ktR5Y9pJGfw6YQY-] found.
Track | CTDB Status
1 | (1/1) Accurately ripped
2 | (1/1) Accurately ripped
3 | (1/1) Accurately ripped
[AccurateRip ID: 0008305e-001b5ab9-180e4603] found.
Track [ CRC | V2 ] Status
01 [1c8c354c|42947652] (0+2/2) Accurately ripped
02 [9d62c13d|118c997f] (0+2/2) Accurately ripped
03 [ad0b28aa|e5bdc421] (0+2/2) Accurately ripped
Track Peak [ CRC32 ] [W/O NULL]
-- 96.5 [8BCA06B0] [896369FB]
01 96.5 [034648E8] [E9E39A88]
02 96.5 [100B60C4] [D5ADEE2F]
03 96.5 [8FB935D1] [84A69202]

другие релизы
Any questions -> support@pro-jazz.com. По всем вопросам пишите -> support@pro-jazz.com
22:26
167
Нет комментариев. Ваш будет первым!