Вы используете незарегистрированную версию компонента "Вкладки"!

Поиск

(Free Jazz, Contemporary Jazz) [CD] John Wolf Brennan (Alex Cline, Daniele Patumi, Tscho Theissing, John Voirol) - Shooting Stars & Traffic Lights - 2006, FLAC (image+.cue), lossless

(Free Jazz, Contemporary Jazz) [CD] John Wolf Brennan (Alex Cline, Daniele Patumi, Tscho Theissing, John Voirol) - Shooting Stars & Traffic Lights - 2006, FLAC (image+.cue), lossless
Треклист:
John Wolf Brennan / Shooting Stars & Traffic Lights
Жанр: Free Jazz, Contemporary Jazz
Носитель: CD
Страна-производитель диска: UK
Год издания: 2006
Издатель (лейбл): Leo Records
Номер по каталогу: CD LR 477
Аудиокодек: FLAC (*.flac)
Тип рипа: image+.cue
Битрейт аудио: lossless
Продолжительность: 63:31
Источник (релизер): CD
Наличие сканов в содержимом раздачи: нет
Треклист:
1 Shooting Stars & Traffic Lights 10:57
2 Ognatango 4:45
3 Toccattacca: Attacca/Fugato/Sostenuto 8:01
4 Have You Space? 2:15
5 Gathering At The Threshold 13:16
6 Kabak 6:59
7 Marcia Funebre 7:53
8 Kore 3:01
9 A.L.P. Traum 3:58
10 Seconds 1:39
11 The Firefly 0:41
 
Лог создания рипа
Exact Audio Copy V1.0 beta 2 from 29. April 2011
EAC extraction logfile from 15. January 2014, 13:03
John Wolf Brennan / Shooting Stars & Traffic Lights
Used drive : Optiarc DVD RW AD-7170A Adapter: 0 ID: 0
Read mode : Secure
Utilize accurate stream : Yes
Defeat audio cache : Yes
Make use of C2 pointers : No
Read offset correction : 48
Overread into Lead-In and Lead-Out : No
Fill up missing offset samples with silence : Yes
Delete leading and trailing silent blocks : No
Null samples used in CRC calculations : Yes
Used interface : Native Win32 interface for Win NT & 2000
Used output format : User Defined Encoder
Selected bitrate : 320 kBit/s
Quality : High
Add ID3 tag : No
Command line compressor : C:\Program Files\Exact Audio Copy\Flac\flac.exe
Additional command line options : -V -8 -T "Date=%year%" -T "Genre=%genre%" %source%
TOC of the extracted CD
Track | Start | Length | Start sector | End sector
---------------------------------------------------------
1 | 0:00.00 | 10:57.65 | 0 | 49339
2 | 10:57.65 | 4:45.50 | 49340 | 70764
3 | 15:43.40 | 8:01.62 | 70765 | 106901
4 | 23:45.27 | 2:15.58 | 106902 | 117084
5 | 26:01.10 | 13:16.65 | 117085 | 176849
6 | 39:18.00 | 6:59.35 | 176850 | 208309
7 | 46:17.35 | 7:53.07 | 208310 | 243791
8 | 54:10.42 | 3:01.35 | 243792 | 257401
9 | 57:12.02 | 3:58.28 | 257402 | 275279
10 | 61:10.30 | 1:39.57 | 275280 | 282761
11 | 62:50.12 | 0:41.25 | 282762 | 285861
Range status and errors
Selected range
Filename K:\ЕАС\John Wolf Brennan - Shooting Stars & Traffic Lights.wav
Peak level 98.0 %
Extraction speed 1.9 X
Range quality 99.9 %
Test CRC 8C7FBF44
Copy CRC 8C7FBF44
Copy OK
No errors occurred
AccurateRip summary
Track 1 accurately ripped (confidence 1) [03A5A5BD] (AR v2)
Track 2 accurately ripped (confidence 1) [B91A4DBF] (AR v2)
Track 3 accurately ripped (confidence 1) [7E159E51] (AR v2)
Track 4 accurately ripped (confidence 1) [EF5E5193] (AR v2)
Track 5 accurately ripped (confidence 1) [C256D141] (AR v2)
Track 6 accurately ripped (confidence 1) [C324E550] (AR v2)
Track 7 accurately ripped (confidence 1) [4B6826B0] (AR v2)
Track 8 accurately ripped (confidence 1) [E917F753] (AR v2)
Track 9 accurately ripped (confidence 1) [46D14EFF] (AR v2)
Track 10 accurately ripped (confidence 1) [5D0F89A3] (AR v2)
Track 11 accurately ripped (confidence 1) [67027AFD] (AR v2)
All tracks accurately ripped
End of status report
==== Log checksum 8221C66BEB95885FA2BE84D42BF349A11E7B282AC4CF99608E1E54467245C40D ====
 
Содержание индексной карты (.CUE)
REM GENRE Jazz
REM DATE 2006
REM DISCID A80EE30B
REM COMMENT "ExactAudioCopy v1.0b2"
CATALOG 0000094072301
PERFORMER "John Wolf Brennan"
TITLE "Shooting Stars & Traffic Lights"
FILE "John Wolf Brennan - Shooting Stars & Traffic Lights.flac" WAVE
TRACK 01 AUDIO
TITLE "Shooting Stars & Traffic Lights"
PERFORMER "John Wolf Brennan"
ISRC 000000000000
INDEX 01 00:00:00
TRACK 02 AUDIO
TITLE "Ognatango"
PERFORMER "John Wolf Brennan"
ISRC 000000000000
INDEX 00 10:52:30
INDEX 01 10:57:65
TRACK 03 AUDIO
TITLE "Toccattacca"
PERFORMER "John Wolf Brennan"
ISRC 000000000000
INDEX 00 15:40:15
INDEX 01 15:43:40
TRACK 04 AUDIO
TITLE "Have you Space"
PERFORMER "John Wolf Brennan"
ISRC 000000000000
INDEX 00 23:43:00
INDEX 01 23:45:27
TRACK 05 AUDIO
TITLE "Gathering at the Threshold"
PERFORMER "John Wolf Brennan"
ISRC 000000000000
INDEX 00 25:59:05
INDEX 01 26:01:10
TRACK 06 AUDIO
TITLE "Kabak"
PERFORMER "John Wolf Brennan"
ISRC 000000000000
INDEX 00 39:17:20
INDEX 01 39:18:00
TRACK 07 AUDIO
TITLE "Marcia funebre"
PERFORMER "John Wolf Brennan"
ISRC 000000000000
INDEX 00 46:15:10
INDEX 01 46:17:35
TRACK 08 AUDIO
TITLE "Kore"
PERFORMER "John Wolf Brennan"
ISRC 000000000000
INDEX 01 54:10:42
TRACK 09 AUDIO
TITLE "A.L.P. traum"
PERFORMER "John Wolf Brennan"
ISRC 000000000000
INDEX 00 57:10:27
INDEX 01 57:12:02
TRACK 10 AUDIO
TITLE "Seconds"
PERFORMER "John Wolf Brennan"
ISRC 000000000000
INDEX 00 61:07:05
INDEX 01 61:10:30
TRACK 11 AUDIO
TITLE "The Firefly"
PERFORMER "John Wolf Brennan"
ISRC 000000000000
INDEX 00 62:47:05
INDEX 01 62:50:12
Доп. информация: Recorded on 3 August 1993 and 26 Setember 1997
 
Состав
Bass – Daniele Patumi
Drums, Percussion – Alex Cline
Piano – John Wolf Brennan
Soprano Saxophone, Tenor Saxophone – John Voirol
Violin – Tscho Theissing
По всем вопросам пишите личное сообщение пользователю M0p94ok.
22:26
245
Нет комментариев. Ваш будет первым!